<?xml version="1.0" standalone="no"?>
<!DOCTYPE svg PUBLIC "-//W3C//DTD SVG 1.1//EN" "http://www.w3.org/Graphics/SVG/1.1/DTD/svg11.dtd" >
<svg xmlns="http://www.w3.org/2000/svg" xmlns:xlink="http://www.w3.org/1999/xlink" version="1.1">
<metadata>
Created by FontForge 20201107 at Tue Mar 27 18:01:14 2018
 By 
(c) 2017 by Boutros International. All rights reserved.
</metadata>
<defs>
<font id="Tajawal-ExtraBold" horiz-adv-x="0" >
  <font-face 
    font-family="Tajawal ExtraBold"
    font-weight="800"
    font-stretch="normal"
    units-per-em="1000"
    panose-1="0 0 8 0 0 0 0 0 0 0"
    ascent="643"
    descent="-357"
    x-height="454"
    cap-height="633"
    bbox="-137 -403 1464 1122"
    underline-thickness="3"
    underline-position="-4"
    unicode-range="U+0020-FEFC"
  />
<missing-glyph horiz-adv-x="247" 
d="M25 0v633h197v-633h-197zM197 25v583h-147v-583h147z" />
    <glyph glyph-name="ff" unicode="ff" horiz-adv-x="765" 
d="M483 344h-246v-344h-136v344h-72v110h72v59q0 70 29 101t95 31q84 0 156 -57l-50 -71q-42 27 -69 27q-25 0 -25 -46v-44h246v59q0 70 29 101t95 31q85 0 156 -57l-50 -71q-42 27 -68 27t-26 -46v-44h125v-110h-125v-344h-136v344z" />
    <glyph glyph-name="fi" unicode="fi" horiz-adv-x="669" 
d="M459 344h-222v-344h-136v344h-72v110h72v59q0 70 29 101t95 31q84 0 156 -57l-50 -71q-42 27 -69 27q-25 0 -25 -46v-44h360v-454h-138v344zM525 487q-36 0 -59.5 24t-23.5 62q0 35 24.5 60.5t58.5 25.5q36 0 61.5 -25t25.5 -61q0 -38 -24.5 -62t-62.5 -24z" />
    <glyph glyph-name="fl" unicode="fl" horiz-adv-x="648" 
d="M29 344v110h72v59q0 70 29 101t95 31q84 0 156 -57l-50 -71q-42 27 -69 27q-25 0 -25 -46v-44h125v-110h-125v-344h-136v344h-72zM583 645v-645h-136v574q40 19 119 62l11 5z" />
    <glyph glyph-name="ffi" unicode="ffi" horiz-adv-x="1052" 
d="M483 344h-246v-344h-136v344h-72v110h72v59q0 70 29 101t95 31q84 0 156 -57l-50 -71q-42 27 -69 27q-25 0 -25 -46v-44h246v59q0 70 29 101t95 31q85 0 156 -57l-50 -71q-42 27 -68 27t-26 -46v-44h360v-454h-137v344h-223v-344h-136v344zM907 487q-36 0 -59 24t-23 62
q0 35 24 60.5t58 25.5q36 0 61.5 -25t25.5 -61q0 -38 -24 -62t-63 -24z" />
    <glyph glyph-name="uniFDF2" unicode="&#x627;&#xfedf;&#xfee0;&#xfeea;" horiz-adv-x="1540" arabic-form="isolated" 
d="M769 1083v-188l-81 -43v187zM729 662q-25 -14 -57 -14q-41 0 -67 24t-26 60v49l81 45v-88q0 -12 14 -12t14 12v54l82 45v-99q0 -12 14 -12t14 12v64l81 45v-115q0 -37 -27 -60.5t-68 -23.5q-33 0 -55 14zM1017 502l146 77v-361q0 -102 -62 -162q-58 -56 -152 -56h-113
q-75 0 -124 40q-54 -40 -133 -40h-113q-80 0 -131 45q-43 -32 -108 -32q-94 0 -150 69q-47 58 -47 137q0 100 67 164q55 52 126 52q29 0 54 -9v20l145 77v-325q0 -32 13 -45t45 -13h92q42 0 58.5 17.5t16.5 61.5v283l145 77v-381q0 -32 13 -45t45 -13h92q42 0 58.5 17.5
t16.5 61.5v283zM277 285q-18 13 -43 13q-27 0 -44 -22.5t-17 -59.5q0 -81 63 -81q28 0 44 18q-3 20 -3 39v93zM1305 0v568l145 77v-645h-145z" />
    <glyph glyph-name="uniFEF5" unicode="&#xfedf;&#xfe82;" horiz-adv-x="717" arabic-form="isolated" 
d="M434 614q-49 -60 -99 -60q-22 0 -63 22q-33 18 -46 18q-16 0 -49 -36l-50 44q51 60 99 60q23 0 66 -23q31 -16 43 -16q16 0 52 36zM481 568l146 77v-427q0 -101 -62 -162q-58 -56 -151 -56h-394l73 140h126v298l145 77v-375h43q41 0 57.5 17.5t16.5 61.5v349z" />
    <glyph glyph-name="uniFEF6" unicode="&#xfee0;&#xfe82;" horiz-adv-x="755" arabic-form="final" 
d="M434 614q-49 -60 -99 -60q-22 0 -63 22q-33 18 -46 18q-16 0 -49 -36l-50 44q51 60 99 60q23 0 66 -23q31 -16 43 -16q16 0 52 36zM684 140h98v-140h-112q-75 0 -124 40q-54 -40 -132 -40h-394l73 140h126v298l145 77v-375h43q41 0 57.5 17.5t16.5 61.5v349l146 77v-427
q0 -16 -1 -23q1 -31 13.5 -43t44.5 -12z" />
    <glyph glyph-name="uniFEF7" unicode="&#xfedf;&#xfe84;" horiz-adv-x="717" arabic-form="isolated" 
d="M413 637l-35 -65h-196l35 65h31q-11 21 -11 43q0 33 24.5 57t58.5 24t61 -24v-64q-26 23 -50 23q-33 0 -33 -27q0 -15 13 -32h102zM481 568l146 77v-427q0 -101 -62 -162q-58 -56 -151 -56h-394l73 140h126v298l145 77v-375h43q41 0 57.5 17.5t16.5 61.5v349z" />
    <glyph glyph-name="uniFEF8" unicode="&#xfee0;&#xfe84;" horiz-adv-x="755" arabic-form="final" 
d="M413 637l-35 -65h-196l35 65h31q-11 21 -11 43q0 33 24.5 57t58.5 24t61 -24v-64q-26 23 -50 23q-33 0 -33 -27q0 -15 13 -32h102zM684 140h98v-140h-112q-75 0 -124 40q-54 -40 -132 -40h-394l73 140h126v298l145 77v-375h43q41 0 57.5 17.5t16.5 61.5v349l146 77v-427
q0 -16 -1 -23q1 -31 13.5 -43t44.5 -12z" />
    <glyph glyph-name="uniFEF9" unicode="&#xfedf;&#xfe88;" horiz-adv-x="717" arabic-form="isolated" 
d="M481 568l146 77v-427q0 -101 -62 -162q-58 -56 -151 -56h-394l73 140h126v298l145 77v-375h43q41 0 57.5 17.5t16.5 61.5v349zM373 -132q-26 23 -50 23q-33 0 -33 -27q0 -15 13 -32h102l-35 -65h-196l35 65h31q-11 21 -11 43q0 33 24.5 57t58.5 24t61 -24v-64z" />
    <glyph glyph-name="uniFEFA" unicode="&#xfee0;&#xfe88;" horiz-adv-x="755" arabic-form="final" 
d="M684 140h98v-140h-112q-75 0 -124 40q-54 -40 -132 -40h-394l73 140h126v298l145 77v-375h43q41 0 57.5 17.5t16.5 61.5v349l146 77v-427q0 -16 -1 -23q1 -31 13.5 -43t44.5 -12zM373 -132q-26 23 -50 23q-33 0 -33 -27q0 -15 13 -32h102l-35 -65h-196l35 65h31
q-11 21 -11 43q0 33 24.5 57t58.5 24t61 -24v-64z" />
    <glyph glyph-name="uniFEFB" unicode="&#xfedf;&#xfe8e;" horiz-adv-x="717" arabic-form="isolated" 
d="M481 568l146 77v-427q0 -101 -62 -162q-58 -56 -151 -56h-394l73 140h126v298l145 77v-375h43q41 0 57.5 17.5t16.5 61.5v349z" />
    <glyph glyph-name="uniFEFC" unicode="&#xfee0;&#xfe8e;" horiz-adv-x="755" arabic-form="final" 
d="M684 140h98v-140h-112q-75 0 -124 40q-54 -40 -132 -40h-394l73 140h126v298l145 77v-375h43q41 0 57.5 17.5t16.5 61.5v349l146 77v-427q0 -16 -1 -23q1 -31 13.5 -43t44.5 -12z" />
    <glyph glyph-name="uniFB57" unicode="&#x67e;" horiz-adv-x="946" arabic-form="final" 
d="M875 140h98v-140h-112q-70 0 -116 34q-48 -34 -117 -34h-357q-87 0 -137 59q-44 51 -44 132v92l145 77v-161q0 -33 12.5 -46t44.5 -13h323q32 0 44.5 13t12.5 46v174l145 77v-252q0 -32 13 -45t45 -13zM429 -160q0 -34 -20 -54t-53 -20q-34 0 -54.5 20.5t-20.5 53.5
q0 34 20.5 54.5t54.5 20.5q33 0 53 -20.5t20 -54.5zM522 -85q34 0 54 -20.5t20 -54.5q0 -33 -20.5 -53.5t-53.5 -20.5t-53.5 20.5t-20.5 53.5q0 34 20.5 54.5t53.5 20.5zM438 -246q31 0 49 -18.5t18 -50.5q0 -30 -18 -48t-49 -18t-49 18t-18 48q0 32 18 50.5t49 18.5z" />
    <glyph glyph-name="uniFB58" unicode="&#x67e;" horiz-adv-x="364" arabic-form="initial" 
d="M-27 0v140h98q32 0 45 13t13 45v175l145 77v-258q0 -93 -58 -146q-50 -46 -131 -46h-112zM24 -233q-33 0 -53.5 20t-20.5 53q0 34 20.5 55t53.5 21q34 0 54 -20.5t20 -55.5q0 -33 -20.5 -53t-53.5 -20zM191 -233q-33 0 -53.5 20t-20.5 53q0 34 20.5 55t53.5 21
q34 0 54 -20.5t20 -55.5q0 -33 -20.5 -53t-53.5 -20zM107 -381q-30 0 -48.5 18.5t-18.5 48.5q0 31 18 49.5t49 18.5t49 -18.5t18 -49.5q0 -30 -18.5 -48.5t-48.5 -18.5z" />
    <glyph glyph-name="uniFB59" unicode="&#x67e;" horiz-adv-x="403" arabic-form="medial" 
d="M332 140h98v-140h-112q-70 0 -116 34q-48 -34 -117 -34h-112v140h98q32 0 45 13t13 45v175l145 77v-252q0 -32 13 -45t45 -13zM120 -160q0 -33 -20.5 -53t-53.5 -20t-54 20t-21 53q0 34 20.5 55t54.5 21t54 -20.5t20 -55.5zM213 -84q33 0 53 -20.5t20 -55.5
q0 -33 -20 -53t-53 -20t-54 20t-21 53q0 34 20.5 55t54.5 21zM129 -246q31 0 49 -18.5t18 -49.5q0 -30 -18.5 -48.5t-48.5 -18.5q-31 0 -49.5 18.5t-18.5 48.5q0 31 18.5 49.5t49.5 18.5z" />
    <glyph glyph-name="uniFB6B" unicode="&#x6a4;" horiz-adv-x="1013" arabic-form="final" 
d="M730 686q-67 0 -67 68q0 67 67 67t67 -67q0 -68 -67 -68zM648 524q-34 0 -54.5 21t-20.5 55q0 33 20.5 53t54.5 20q33 0 53 -20t20 -53q0 -35 -20 -55.5t-53 -20.5zM740 600q0 33 20.5 53t53.5 20t53.5 -20t20.5 -53q0 -35 -20 -55.5t-54 -20.5q-33 0 -53.5 21t-20.5 55z
M897 140h143v-140h-230q-49 0 -86 8q-35 -8 -86 -8h-367q-87 0 -137 59q-44 51 -44 132v92l145 77v-161q0 -33 12.5 -46t44.5 -13h259q-29 55 -29 109q0 101 60 162q55 57 142 57q100 0 156 -73q46 -59 46 -146q0 -54 -29 -109zM724 153q28 15 45 44.5t17 60.5q0 74 -62 74
q-61 0 -61 -73q0 -32 17 -61.5t44 -44.5z" />
    <glyph glyph-name="uniFB6C" unicode="&#x6a4;" horiz-adv-x="571" arabic-form="initial" 
d="M289 686q-67 0 -67 68q0 67 67 67t67 -67q0 -68 -67 -68zM207 524q-34 0 -54.5 21t-20.5 55q0 33 20.5 53t54.5 20q33 0 53 -20t20 -53q0 -35 -20 -55.5t-53 -20.5zM373 524q-34 0 -54 21t-20 55q0 33 20 53t54 20q33 0 53.5 -20t20.5 -53q0 -35 -20.5 -55.5t-53.5 -20.5
zM-27 0v140h148q-22 42 -22 94q0 112 61 176q55 58 144 58q91 0 142 -58q45 -51 45 -131v-88q0 -86 -52 -139q-50 -52 -137 -52h-329zM346 283q0 49 -42 49q-62 0 -62 -93q0 -99 60 -99q44 0 44 48v95z" />
    <glyph glyph-name="uniFB6D" unicode="&#x6a4;" horiz-adv-x="582" arabic-form="medial" 
d="M289 686q-67 0 -67 68q0 67 67 67t67 -67q0 -68 -67 -68zM207 524q-34 0 -54.5 21t-20.5 55q0 33 20.5 53t54.5 20q33 0 53 -20t20 -53q0 -35 -20 -55.5t-53 -20.5zM299 600q0 33 20 53t54 20q33 0 53.5 -20t20.5 -53q0 -35 -20.5 -55.5t-53.5 -20.5q-34 0 -54 21t-20 55
zM464 140h144v-140h-231q-51 0 -86 8q-36 -8 -86 -8h-232v140h145q-29 55 -29 109q0 101 59 162q55 57 143 57q100 0 156 -73q46 -59 46 -146q0 -54 -29 -109zM291 154q27 14 44 43.5t17 60.5q0 74 -61 74q-62 0 -62 -73q0 -32 17 -61.5t45 -43.5z" />
    <glyph glyph-name="uniFBE8" unicode="&#x649;" horiz-adv-x="364" arabic-form="initial" 
d="M-27 0v140h98q32 0 45 13t13 45v175l145 77v-258q0 -93 -58 -146q-51 -46 -131 -46h-112z" />
    <glyph glyph-name="uniFBE9" unicode="&#x649;" horiz-adv-x="403" arabic-form="medial" 
d="M332 140h97v-140h-111q-70 0 -116 34q-48 -34 -117 -34h-112v140h98q32 0 45 13t13 45v175l145 77v-252q0 -32 12.5 -45t45.5 -13z" />
    <glyph glyph-name="uniFC59" unicode="&#xfc59;" horiz-adv-x="1122" arabic-form="isolated" 
d="M707 0q-14 -94 -110 -145q-83 -45 -207 -45q-171 0 -256 97q-64 72 -64 177q0 76 35 135l138 29q-37 -66 -37 -140q0 -166 184 -166q130 0 165 58h-94l72 140h296q32 0 45 13t13 45v175l145 77v-258q0 -93 -58 -146q-51 -46 -131 -46h-136zM790 -235q-34 0 -54.5 21
t-20.5 55q0 33 20.5 53t54.5 20q33 0 53 -20t20 -53q0 -35 -19.5 -55.5t-53.5 -20.5zM956 -235q-33 0 -53.5 21t-20.5 55q0 33 20.5 53t53.5 20t53.5 -20t20.5 -53q0 -35 -20 -55.5t-54 -20.5z" />
    <glyph glyph-name="uniFC5A" unicode="&#xfc5a;" horiz-adv-x="1122" arabic-form="isolated" 
d="M707 0q-14 -94 -110 -145q-83 -45 -207 -45q-171 0 -256 97q-64 72 -64 177q0 76 35 135l138 29q-37 -66 -37 -140q0 -166 184 -166q130 0 165 58h-94l72 140h296q32 0 45 13t13 45v175l145 77v-258q0 -93 -58 -146q-51 -46 -131 -46h-136zM308 -403q-33 0 -53.5 20.5
t-20.5 54.5q0 33 20.5 53.5t53.5 20.5t53.5 -20.5t20.5 -53.5q0 -34 -20 -54.5t-54 -20.5zM475 -403q-33 0 -53.5 20.5t-20.5 54.5q0 33 20.5 53.5t53.5 20.5t53.5 -20.5t20.5 -53.5q0 -34 -20 -54.5t-54 -20.5zM790 -235q-34 0 -54.5 21t-20.5 55q0 33 20.5 53t54.5 20
q33 0 53 -20t20 -53q0 -35 -19.5 -55.5t-53.5 -20.5zM956 -235q-33 0 -53.5 21t-20.5 55q0 33 20.5 53t53.5 20t53.5 -20t20.5 -53q0 -35 -20 -55.5t-54 -20.5z" />
    <glyph glyph-name="uniFC5E" unicode="&#xfc5e;" arabic-form="isolated" 
d="M209 913q-13 25 -13 53q0 47 29.5 80t71.5 33q44 0 73 -33t29 -83q0 -66 -43 -106t-113 -40q-63 0 -122 36l-21 -34l-90 63l62 94h34q47 -63 103 -63zM301 943q17 12 17 31q0 25 -19 25t-19 -25q0 -20 21 -31zM266 655v64l81 45v-115q0 -37 -27 -60.5t-68 -23.5
q-33 0 -55 14q-25 -14 -57 -14q-41 0 -67 24t-26 60v49l81 45v-88q0 -12 14 -12t14 12v54l82 45v-99q0 -12 14 -12t14 12z" />
    <glyph glyph-name="uniFC5F" unicode="&#xfc5f;" arabic-form="isolated" 
d="M197 927q-25 -14 -57 -14q-41 0 -67 24t-26 60v49l81 45v-88q0 -12 14 -12t14 12v54l82 45v-99q0 -12 14 -12t14 12v64l81 45v-115q0 -37 -27 -60.5t-68 -23.5q-33 0 -55 14zM367 888l-52 -112l-288 -53l52 113zM0 563l53 113l288 52l-53 -112z" />
    <glyph glyph-name="uniFC60" unicode="&#xfc60;" arabic-form="isolated" 
d="M349 964l-53 -112l-288 -53l53 113zM227 655v64l81 45v-115q0 -37 -27 -60.5t-68 -23.5q-33 0 -55 14q-25 -14 -57 -14q-41 0 -67 24t-26 60v49l81 45v-88q0 -12 14 -12t14 12v54l82 45v-99q0 -12 14 -12t14 12z" />
    <glyph glyph-name="uniFC61" unicode="&#xfc61;" arabic-form="isolated" 
d="M165 914q-13 25 -13 54q0 47 29.5 80t71.5 33q44 0 73 -32t29 -81q0 -48 -28.5 -84t-71.5 -42l-247 -45l45 96zM256 945q18 12 18 31q0 24 -19 24t-19 -24q0 -20 20 -31zM227 655v64l81 45v-115q0 -37 -27 -60.5t-68 -23.5q-33 0 -55 14q-25 -14 -57 -14q-41 0 -67 24
t-26 60v49l81 45v-88q0 -12 14 -12t14 12v54l82 45v-99q0 -12 14 -12t14 12z" />
    <glyph glyph-name="uniFC62" unicode="&#xfc62;" arabic-form="isolated" 
d="M176 810q-25 -14 -57 -14q-41 0 -67 24t-26 60v49l81 45v-88q0 -12 14 -12t14 12v54l82 45v-99q0 -12 14 -12t14 12v64l81 45v-115q0 -37 -27 -60.5t-68 -23.5q-33 0 -55 14zM53 677l288 52l-53 -112l-288 -53z" />
    <glyph glyph-name="uniFC63" unicode="&#xfc63;" arabic-form="isolated" 
d="M216 1029v-188l-81 -43v187zM176 608q-25 -14 -57 -14q-41 0 -67 23.5t-26 60.5v49l81 45v-88q0 -12 14 -12t14 12v54l82 45v-99q0 -12 14 -12t14 12v64l81 45v-115q0 -37 -27 -60.5t-68 -23.5q-33 0 -55 14z" />
    <glyph glyph-name="uniFC95" unicode="&#xfc95;" horiz-adv-x="1135" arabic-form="final" 
d="M707 0q-14 -94 -110 -145q-83 -45 -207 -45q-171 0 -256 97q-64 72 -64 177q0 76 35 135l138 29q-37 -66 -37 -140q0 -166 184 -166q130 0 165 58h-94l72 140h270q32 0 45 13t13 45v175l145 77v-252q0 -32 13 -45t45 -13h98v-140h-112q-70 0 -116 34q-48 -34 -117 -34
h-110zM799 -86q33 0 53.5 -20.5t20.5 -53.5q0 -34 -20 -54.5t-54 -20.5q-33 0 -54 21t-21 54t20.5 53.5t54.5 20.5zM966 -86q33 0 53 -20t20 -54t-20 -54.5t-53 -20.5t-54 21t-21 54t20.5 53.5t54.5 20.5z" />
    <glyph glyph-name="uniFC96" unicode="&#xfc96;" horiz-adv-x="1135" arabic-form="final" 
d="M707 0q-14 -94 -110 -145q-83 -45 -207 -45q-171 0 -256 97q-64 72 -64 177q0 76 35 135l138 29q-37 -66 -37 -140q0 -166 184 -166q130 0 165 58h-94l72 140h270q32 0 45 13t13 45v175l145 77v-252q0 -32 13 -45t45 -13h98v-140h-112q-70 0 -116 34q-48 -34 -117 -34
h-110zM308 -403q-33 0 -53.5 20.5t-20.5 54.5q0 33 20.5 53.5t53.5 20.5t53.5 -20.5t20.5 -53.5q0 -34 -20 -54.5t-54 -20.5zM475 -403q-33 0 -53.5 20.5t-20.5 54.5q0 33 20.5 53.5t53.5 20.5t53.5 -20.5t20.5 -53.5q0 -34 -20 -54.5t-54 -20.5zM799 -86q33 0 53.5 -20.5
t20.5 -53.5q0 -34 -20 -54.5t-54 -20.5q-33 0 -54 21t-21 54t20.5 53.5t54.5 20.5zM966 -86q33 0 53 -20t20 -54t-20 -54.5t-53 -20.5t-54 21t-21 54t20.5 53.5t54.5 20.5z" />
    <glyph glyph-name="uniFE82" unicode="&#x622;" horiz-adv-x="364" arabic-form="final" 
d="M327 758q-49 -60 -99 -60q-22 0 -63 22q-33 18 -46 18q-16 0 -49 -36l-50 44q51 60 99 60q23 0 66 -23q31 -16 43 -16q16 0 52 36zM279 0q-92 0 -144 59q-45 52 -45 133v376l145 77v-447q0 -32 13 -45t45 -13h98v-140h-112z" />
    <glyph glyph-name="uniFE84" unicode="&#x623;" horiz-adv-x="364" arabic-form="final" 
d="M45 661l35 66h31q-11 21 -11 43q0 33 24.5 57t58.5 24q33 0 61 -24v-64q-25 23 -51 23q-16 0 -25 -9q-8 -8 -8 -19q0 -15 14 -31h102l-35 -66h-196zM279 0q-92 0 -144 59q-45 52 -45 133v336l145 77v-407q0 -32 13 -45t45 -13h98v-140h-112z" />
    <glyph glyph-name="uniFE86" unicode="&#x624;" horiz-adv-x="553" arabic-form="final" 
d="M326 564h-196l35 65h31q-11 19 -11 42q0 34 24.5 58t58.5 24t61 -24v-64q-26 23 -50 23q-33 0 -33 -27q0 -15 13 -32h102zM580 0h-119q-7 -90 -80 -144q-60 -45 -141 -45q-65 0 -131 37v127q60 -34 114 -34q34 0 62 19t32 44q-22 1 -53 5q-100 13 -157 84q-47 60 -47 141
q0 112 62 176q55 58 146 58q96 0 149 -58q45 -50 45 -131v-139h118v-140zM317 278q0 54 -49 54q-65 0 -65 -93q0 -97 114 -97v136z" />
    <glyph glyph-name="uniFE88" unicode="&#x625;" horiz-adv-x="364" arabic-form="final" 
d="M279 0q-92 0 -144 59q-45 52 -45 133v376l145 77v-447q0 -32 13 -45t45 -13h98v-140h-112zM57 -285l35 65h31q-11 21 -11 43q0 33 24.5 57t58.5 24t61 -24v-64q-26 23 -50 23q-33 0 -33 -27q0 -15 13 -32h102l-35 -65h-196z" />
    <glyph glyph-name="uniFE8A" unicode="&#x626;" horiz-adv-x="689" arabic-form="final" 
d="M114 340l35 65h32q-12 20 -12 43q0 35 26 59q24 22 58 22q33 0 60 -24v-64q-26 23 -51 23q-16 0 -24 -9q-8 -8 -8 -20q0 -15 13 -30h103l-35 -65h-197zM707 0q-14 -94 -110 -145q-83 -45 -207 -45q-171 0 -256 97q-64 72 -64 177q0 76 35 135l138 29q-37 -66 -37 -140
q0 -166 184 -166q130 0 165 58h-94l72 140h177v-140h-3z" />
    <glyph glyph-name="uniFE8B" unicode="&#x626;" horiz-adv-x="361" arabic-form="initial" 
d="M58 564l35 66h31q-11 20 -11 42q0 36 26 60q23 22 57 22t61 -24v-64q-26 23 -51 23q-16 0 -25 -9q-7 -7 -7 -19q0 -15 13 -31h102l-35 -66h-196zM-27 0v140h98q32 0 45 13t13 45v175l145 77v-258q0 -93 -58 -146q-51 -46 -131 -46h-112z" />
    <glyph glyph-name="uniFE8C" unicode="&#x626;" horiz-adv-x="403" arabic-form="medial" 
d="M323 630l-35 -66h-197l35 66h32q-12 21 -12 43q0 36 26 59q24 22 57 22q34 0 62 -24v-64q-27 23 -52 23q-16 0 -24 -9q-8 -8 -8 -20q0 -15 13 -30h103zM332 140h97v-140h-111q-70 0 -116 34q-48 -34 -117 -34h-112v140h98q32 0 45 13t13 45v175l145 77v-252
q0 -32 12.5 -45t45.5 -13z" />
    <glyph glyph-name="uniFE8E" unicode="&#x627;" horiz-adv-x="364" arabic-form="final" 
d="M279 0q-92 0 -144 59q-45 52 -45 133v376l145 77v-447q0 -32 13 -45t45 -13h98v-140h-112z" />
    <glyph glyph-name="uniFE90" unicode="&#x628;" horiz-adv-x="926" arabic-form="final" 
d="M875 140h81v-140h-95q-70 0 -116 34q-48 -34 -117 -34h-357q-87 0 -137 59q-44 51 -44 132v92l145 77v-161q0 -33 12.5 -46t44.5 -13h323q32 0 44.5 13t12.5 46v174l145 77v-252q0 -32 13 -45t45 -13zM440 -86q33 0 53 -20t20 -54t-20 -54.5t-53 -20.5q-34 0 -54.5 20.5
t-20.5 54.5t20.5 54t54.5 20z" />
    <glyph glyph-name="uniFE91" unicode="&#x628;" horiz-adv-x="364" arabic-form="initial" 
d="M-27 0v140h98q32 0 45 13t13 45v175l145 77v-258q0 -93 -58 -146q-51 -46 -131 -46h-112zM159 -235q-34 0 -54.5 20.5t-20.5 54.5t20.5 54t54.5 20q33 0 53 -20t20 -54t-20 -54.5t-53 -20.5z" />
    <glyph glyph-name="uniFE92" unicode="&#x628;" horiz-adv-x="403" arabic-form="medial" 
d="M332 140h97v-140h-111q-70 0 -116 34q-48 -34 -117 -34h-112v140h98q32 0 45 13t13 45v175l145 77v-252q0 -32 12.5 -45t45.5 -13zM214 -86q33 0 53 -20t20 -54t-20 -54.5t-53 -20.5q-34 0 -54.5 20.5t-20.5 54.5t20.5 54t54.5 20z" />
    <glyph glyph-name="uniFE94" unicode="&#x629;" horiz-adv-x="551" arabic-form="final" 
d="M152 565q-34 0 -54.5 21t-20.5 55q0 33 20.5 53t54.5 20q33 0 53 -20t20 -53q0 -35 -20 -55.5t-53 -20.5zM318 565q-33 0 -53.5 21t-20.5 55q0 33 20.5 53t53.5 20t53.5 -20t20.5 -53q0 -35 -20 -55.5t-54 -20.5zM480 140h98v-140h-112q-89 0 -141 55q-40 -26 -98 -26
q-94 0 -150 70q-47 58 -47 137q0 100 67 163q54 52 126 52q27 0 54 -8v20l145 76v-341q0 -32 13 -45t45 -13zM277 302q-19 12 -43 12q-28 0 -44.5 -22t-16.5 -59q0 -81 63 -81q28 0 42 16q-1 8 -1 24v110z" />
    <glyph glyph-name="uniFE96" unicode="&#x62a;" horiz-adv-x="926" arabic-form="final" 
d="M365 465q-34 0 -54.5 21t-20.5 55q0 33 20.5 53t54.5 20q33 0 53 -20t20 -53q0 -35 -20 -55.5t-53 -20.5zM532 465q-34 0 -54.5 21t-20.5 55q0 33 20.5 53t54.5 20q33 0 53 -20t20 -53q0 -35 -20 -55.5t-53 -20.5zM875 140h81v-140h-95q-70 0 -116 34q-48 -34 -117 -34
h-357q-87 0 -137 59q-44 51 -44 132v92l145 77v-161q0 -33 12.5 -46t44.5 -13h323q32 0 44.5 13t12.5 46v174l145 77v-252q0 -32 13 -45t45 -13z" />
    <glyph glyph-name="uniFE97" unicode="&#x62a;" horiz-adv-x="364" arabic-form="initial" 
d="M40 540q-34 0 -54.5 21t-20.5 55q0 33 20.5 53t54.5 20q33 0 53 -20t20 -53q0 -35 -20 -55.5t-53 -20.5zM206 540q-33 0 -53.5 21t-20.5 55q0 33 20.5 53t53.5 20t53.5 -20t20.5 -53q0 -35 -20 -55.5t-54 -20.5zM-27 0v140h98q32 0 45 13t13 45v175l145 77v-258
q0 -93 -58 -146q-50 -46 -131 -46h-112z" />
    <glyph glyph-name="uniFE98" unicode="&#x62a;" horiz-adv-x="403" arabic-form="medial" 
d="M56 523q-34 0 -54.5 21t-20.5 55q0 33 20.5 53.5t54.5 20.5q33 0 53 -20t20 -54q0 -35 -20 -55.5t-53 -20.5zM223 523q-34 0 -54.5 21t-20.5 55q0 33 20.5 53.5t54.5 20.5q33 0 53 -20t20 -54q0 -35 -20 -55.5t-53 -20.5zM332 140h97v-140h-111q-70 0 -116 34
q-48 -34 -117 -34h-112v140h98q32 0 45 13t13 45v175l145 77v-252q0 -32 12.5 -45t45.5 -13z" />
    <glyph glyph-name="uniFE9A" unicode="&#x62b;" horiz-adv-x="926" arabic-form="final" 
d="M472 627q-31 0 -49.5 19t-18.5 50q0 30 18.5 48.5t49.5 18.5t49.5 -18.5t18.5 -48.5q0 -69 -68 -69zM390 465q-34 0 -54.5 21t-20.5 55q0 33 20.5 53t54.5 20q33 0 53 -20t20 -53q0 -35 -20 -55.5t-53 -20.5zM482 541q0 33 20.5 53t54.5 20q33 0 53 -20t20 -53
q0 -35 -20 -55.5t-53 -20.5q-34 0 -54.5 21t-20.5 55zM875 140h81v-140h-95q-70 0 -116 34q-48 -34 -117 -34h-357q-87 0 -137 59q-44 51 -44 132v92l145 77v-161q0 -33 12.5 -46t44.5 -13h323q32 0 44.5 13t12.5 46v174l145 77v-252q0 -32 13 -45t45 -13z" />
    <glyph glyph-name="uniFE9B" unicode="&#x62b;" horiz-adv-x="364" arabic-form="initial" 
d="M122 702q-67 0 -67 68q0 67 67 67t67 -67q0 -68 -67 -68zM40 540q-34 0 -54.5 21t-20.5 55q0 33 20.5 53t54.5 20q33 0 53 -20t20 -53q0 -35 -20 -55.5t-53 -20.5zM206 540q-33 0 -53.5 21t-20.5 55q0 33 20.5 53t53.5 20t53.5 -20t20.5 -53q0 -35 -20 -55.5t-54 -20.5z
M-27 0v140h98q32 0 45 13t13 45v175l145 77v-258q0 -93 -58 -146q-50 -46 -131 -46h-112z" />
    <glyph glyph-name="uniFE9C" unicode="&#x62b;" horiz-adv-x="403" arabic-form="medial" 
d="M139 685q-31 0 -49.5 19t-18.5 50q0 30 18.5 48.5t49.5 18.5q30 0 49 -18.5t19 -48.5q0 -31 -18.5 -50t-49.5 -19zM57 523q-34 0 -54.5 21t-20.5 55q0 33 20.5 53.5t54.5 20.5q33 0 53 -20t20 -54q0 -35 -20 -55.5t-53 -20.5zM149 599q0 33 20.5 53.5t53.5 20.5
t53.5 -20.5t20.5 -53.5q0 -35 -20.5 -55.5t-53.5 -20.5t-53.5 21t-20.5 55zM332 140h97v-140h-111q-70 0 -116 34q-48 -34 -117 -34h-112v140h98q32 0 45 13t13 45v175l145 77v-252q0 -32 12.5 -45t45.5 -13z" />
    <glyph glyph-name="uniFE9E" unicode="&#x62c;" horiz-adv-x="733" arabic-form="final" 
d="M689 140h74v-140h-75q-79 0 -128 18.5t-91 63.5q-27 -10 -83 -23q-101 -24 -134 -53q-42 -39 -42 -106q0 -135 141 -135q95 0 188 55v-138q-90 -57 -202 -57q-122 0 -196 77q-71 73 -71 199q0 132 75 202q54 52 194 86q86 22 117 40q-63 105 -151 105q-76 0 -177 -87v126
q85 95 193 95h2q80 0 155 -58t132 -163v-53q-11 -20 -27 -39q35 -15 106 -15zM292 -93q0 28 17.5 45t45.5 17t45 -17t17 -45q0 -29 -17 -46.5t-45 -17.5t-45.5 17.5t-17.5 46.5z" />
    <glyph glyph-name="uniFE9F" unicode="&#x62c;" horiz-adv-x="592" arabic-form="initial" 
d="M-27 0v140h151q163 0 261 92q-63 102 -148 102q-77 0 -178 -87v126q85 95 193 95h2q80 0 155 -57.5t133 -163.5v-53q-73 -93 -182 -143.5t-237 -50.5h-150zM290 -235q-34 0 -54.5 20.5t-20.5 54.5t20.5 54t54.5 20q33 0 53 -20t20 -54t-20 -54.5t-53 -20.5z" />
    <glyph glyph-name="uniFEA0" unicode="&#x62c;" horiz-adv-x="686" arabic-form="medial" 
d="M622 140h90v-140h-91q-77 0 -124.5 17t-87.5 59q-127 -76 -286 -76h-150v140h151q163 0 261 92q-63 102 -148 102q-77 0 -178 -87v126q85 95 193 95h2q80 0 155 -57.5t133 -163.5v-53q-17 -21 -33 -39q35 -15 113 -15zM290 -86q33 0 53 -20t20 -54t-20 -54.5t-53 -20.5
q-34 0 -54.5 20.5t-20.5 54.5t20.5 54t54.5 20z" />
    <glyph glyph-name="uniFEA2" unicode="&#x62d;" horiz-adv-x="753" arabic-form="final" 
d="M689 140h91v-140h-92q-79 0 -128 18.5t-91 63.5q-27 -10 -83 -23q-101 -24 -134 -53q-42 -39 -42 -106q0 -135 141 -135q95 0 188 55v-138q-90 -57 -202 -57q-122 0 -196 77q-71 73 -71 199q0 132 75 202q54 52 194 86q86 22 117 40q-63 105 -151 105q-76 0 -177 -87v126
q85 95 193 95h2q80 0 155 -58t132 -163v-53q-11 -20 -27 -39q35 -15 106 -15z" />
    <glyph glyph-name="uniFEA3" unicode="&#x62d;" horiz-adv-x="592" arabic-form="initial" 
d="M-27 0v140h151q163 0 261 92q-63 102 -148 102q-77 0 -178 -87v126q85 95 193 95h2q80 0 155 -57.5t133 -163.5v-53q-73 -93 -182 -143.5t-237 -50.5h-150z" />
    <glyph glyph-name="uniFEA4" unicode="&#x62d;" horiz-adv-x="686" arabic-form="medial" 
d="M622 140h90v-140h-91q-77 0 -124.5 17t-87.5 59q-127 -76 -286 -76h-150v140h151q163 0 261 92q-63 102 -148 102q-77 0 -178 -87v126q85 95 193 95h2q80 0 155 -57.5t133 -163.5v-53q-17 -21 -33 -39q35 -15 113 -15z" />
    <glyph glyph-name="uniFEA6" unicode="&#x62e;" horiz-adv-x="753" arabic-form="final" 
d="M320 540q-34 0 -54.5 20.5t-20.5 54.5t20.5 54t54.5 20q33 0 53 -20t20 -54t-20 -54.5t-53 -20.5zM689 140h91v-140h-92q-79 0 -128 18.5t-91 63.5q-27 -10 -83 -23q-101 -24 -134 -53q-42 -39 -42 -106q0 -135 141 -135q95 0 188 55v-138q-90 -57 -202 -57
q-122 0 -196 77q-71 73 -71 199q0 132 75 202q54 52 194 86q86 22 117 40q-63 105 -151 105q-76 0 -177 -87v126q85 95 193 95h2q80 0 155 -58t132 -163v-53q-11 -20 -27 -39q35 -15 106 -15z" />
    <glyph glyph-name="uniFEA7" unicode="&#x62e;" horiz-adv-x="592" arabic-form="initial" 
d="M284 540q-34 0 -54.5 20.5t-20.5 54.5t20.5 54t54.5 20q33 0 53 -20t20 -54t-20 -54.5t-53 -20.5zM-27 0v140h151q163 0 261 92q-63 102 -148 102q-77 0 -178 -87v126q85 95 193 95h2q80 0 155 -57.5t133 -163.5v-53q-73 -93 -182 -143.5t-237 -50.5h-150z" />
    <glyph glyph-name="uniFEA8" unicode="&#x62e;" horiz-adv-x="686" arabic-form="medial" 
d="M284 540q-34 0 -54.5 20.5t-20.5 54.5t20.5 54t54.5 20q33 0 53 -20t20 -54t-20 -54.5t-53 -20.5zM622 140h90v-140h-91q-77 0 -124.5 17t-87.5 59q-127 -76 -286 -76h-150v140h151q163 0 261 92q-63 102 -148 102q-77 0 -178 -87v126q85 95 193 95h2q80 0 155 -57.5
t133 -163.5v-53q-17 -21 -33 -39q35 -15 113 -15z" />
    <glyph glyph-name="uniFEAA" unicode="&#x62f;" horiz-adv-x="545" arabic-form="final" 
d="M10 0l73 140h149q40 0 40 45q0 99 -98 154l71 122q154 -89 170 -242q6 -48 20.5 -63.5t56.5 -15.5h80v-140h-87q-73 0 -123 36q-37 -36 -103 -36h-249z" />
    <glyph glyph-name="uniFEAC" unicode="&#x630;" horiz-adv-x="545" arabic-form="final" 
d="M247 540q-34 0 -54.5 20.5t-20.5 54.5t20.5 54t54.5 20q33 0 53 -20t20 -54t-20 -54.5t-53 -20.5zM10 0l73 140h149q40 0 40 45q0 99 -98 154l71 122q154 -89 170 -242q6 -48 20.5 -63.5t56.5 -15.5h80v-140h-87q-73 0 -123 36q-37 -36 -103 -36h-249z" />
    <glyph glyph-name="uniFEAE" unicode="&#x631;" horiz-adv-x="415" arabic-form="final" 
d="M344 140h98v-140h-112q-23 0 -48 5q-23 -131 -129 -180q-42 -20 -91 -20q-66 0 -129 35v126q52 -29 101 -29q25 0 46 8q61 21 61 112v316l145 77v-1l1 1v-269q5 -41 57 -41z" />
    <glyph glyph-name="uniFEB0" unicode="&#x632;" horiz-adv-x="415" arabic-form="final" 
d="M214 540q-34 0 -54.5 20.5t-20.5 54.5t20.5 54t54.5 20q33 0 53 -20t20 -54t-20 -54.5t-53 -20.5zM344 140h98v-140h-112q-23 0 -48 5q-23 -131 -129 -180q-42 -20 -91 -20q-66 0 -129 35v126q52 -29 101 -29q25 0 46 8q61 21 61 112v316l145 77v-1l1 1v-269
q5 -41 57 -41z" />
    <glyph glyph-name="uniFEB2" unicode="&#x633;" horiz-adv-x="1437" arabic-form="final" 
d="M1370 140h94v-140h-101q-79 0 -133 40q-46 -39 -118 -40h-112q-68 0 -116 34q-45 -32 -110 -34h-111q-24 0 -51 5q-21 -94 -100 -147q-71 -48 -170 -48q-138 0 -213 97q-59 75 -59 177q0 76 35 135l138 29q-37 -66 -37 -140q0 -71 37.5 -114.5t98.5 -43.5q132 0 132 119
v257l145 77v-205q0 -33 12.5 -45.5t44.5 -12.5h78q32 0 44.5 12.5t12.5 45.5v152l146 76v-228q0 -33 12.5 -45.5t44.5 -12.5h79q32 0 44.5 12.5t12.5 45.5v175l145 77v-231q0 -44 16.5 -61.5t58.5 -17.5z" />
    <glyph glyph-name="uniFEB3" unicode="&#x633;" horiz-adv-x="1054" arabic-form="initial" 
d="M-27 0v140h112q32 0 44.5 12.5t12.5 45.5v128l145 77v-205q0 -32 12.5 -45t45.5 -13h77q32 0 45 13t13 45v152l145 76v-228q0 -33 12.5 -45.5t44.5 -12.5h79q32 0 44.5 12.5t12.5 45.5v175l146 77v-258q0 -91 -56 -144q-49 -46 -126 -48h-113q-69 0 -117 37
q-44 -34 -108 -37h-113q-69 0 -117 37q-47 -37 -116 -37h-125z" />
    <glyph glyph-name="uniFEB4" unicode="&#x633;" horiz-adv-x="1106" arabic-form="medial" 
d="M-27 0v140h112q32 0 44.5 12.5t12.5 45.5v128l145 77v-205q0 -32 12.5 -45t45.5 -13h77q32 0 45 13t13 45v152l145 76v-228q0 -33 12.5 -45.5t44.5 -12.5h79q32 0 44.5 12.5t12.5 45.5v175l146 77v-231q0 -44 16 -61.5t58 -17.5h94v-140h-101q-79 0 -132 42
q-45 -39 -117 -42h-113q-69 0 -117 37q-44 -34 -108 -37h-113q-69 0 -117 37q-47 -37 -116 -37h-125z" />
    <glyph glyph-name="uniFEB6" unicode="&#x634;" horiz-adv-x="1437" arabic-form="final" 
d="M887 695q-31 0 -49 18.5t-18 49.5q0 67 67 67t67 -67q0 -31 -18 -49.5t-49 -18.5zM805 533q-34 0 -54.5 21t-20.5 55q0 33 20.5 53.5t54.5 20.5q33 0 53 -20t20 -54q0 -35 -20 -55.5t-53 -20.5zM897 609q0 33 20.5 53.5t54.5 20.5q33 0 53 -20t20 -54q0 -35 -20 -55.5
t-53 -20.5q-34 0 -54.5 21t-20.5 55zM1370 140h94v-140h-101q-79 0 -133 40q-46 -39 -118 -40h-112q-68 0 -116 34q-45 -32 -110 -34h-111q-24 0 -51 5q-21 -94 -100 -147q-71 -48 -170 -48q-138 0 -213 97q-59 75 -59 177q0 76 35 135l138 29q-37 -66 -37 -140
q0 -71 37.5 -114.5t98.5 -43.5q132 0 132 119v257l145 77v-205q0 -33 12.5 -45.5t44.5 -12.5h78q32 0 44.5 12.5t12.5 45.5v152l146 76v-228q0 -33 12.5 -45.5t44.5 -12.5h79q32 0 44.5 12.5t12.5 45.5v175l145 77v-231q0 -44 16.5 -61.5t58.5 -17.5z" />
    <glyph glyph-name="uniFEB7" unicode="&#x634;" horiz-adv-x="1054" arabic-form="initial" 
d="M549 695q-31 0 -49.5 18.5t-18.5 49.5q0 67 68 67q67 0 67 -67q0 -31 -18.5 -49.5t-48.5 -18.5zM466 533q-33 0 -53.5 21t-20.5 55q0 33 20.5 53.5t53.5 20.5t53.5 -20.5t20.5 -53.5q0 -35 -20.5 -55.5t-53.5 -20.5zM633 533q-33 0 -53.5 21t-20.5 55q0 33 20.5 53.5
t53.5 20.5t53.5 -20.5t20.5 -53.5q0 -35 -20.5 -55.5t-53.5 -20.5zM-27 0v140h112q32 0 44.5 12.5t12.5 45.5v128l145 77v-205q0 -32 12.5 -45t45.5 -13h77q32 0 45 13t13 45v152l145 76v-228q0 -33 12.5 -45.5t44.5 -12.5h79q32 0 44.5 12.5t12.5 45.5v175l146 77v-258
q0 -91 -56 -144q-49 -46 -126 -48h-113q-69 0 -117 37q-44 -34 -108 -37h-113q-69 0 -117 37q-47 -37 -116 -37h-125z" />
    <glyph glyph-name="uniFEB8" unicode="&#x634;" horiz-adv-x="1106" arabic-form="medial" 
d="M549 695q-31 0 -49.5 18.5t-18.5 49.5q0 67 68 67q67 0 67 -67q0 -31 -18.5 -49.5t-48.5 -18.5zM466 533q-33 0 -53.5 21t-20.5 55q0 33 20.5 53.5t53.5 20.5t53.5 -20.5t20.5 -53.5q0 -35 -20.5 -55.5t-53.5 -20.5zM633 533q-33 0 -53.5 21t-20.5 55q0 33 20.5 53.5
t53.5 20.5t53.5 -20.5t20.5 -53.5q0 -35 -20.5 -55.5t-53.5 -20.5zM-27 0v140h112q32 0 44.5 12.5t12.5 45.5v128l145 77v-205q0 -32 12.5 -45t45.5 -13h77q32 0 45 13t13 45v152l145 76v-228q0 -33 12.5 -45.5t44.5 -12.5h79q32 0 44.5 12.5t12.5 45.5v175l146 77v-231
q0 -44 16 -61.5t58 -17.5h94v-140h-101q-79 0 -132 42q-45 -39 -117 -42h-113q-69 0 -117 37q-44 -34 -108 -37h-113q-69 0 -117 37q-47 -37 -116 -37h-125z" />
    <glyph glyph-name="uniFEBA" unicode="&#x635;" horiz-adv-x="1420" arabic-form="final" 
d="M1349 140h98v-140h-112q-68 0 -116 34q-48 -34 -117 -34h-439q-24 0 -51 5q-21 -94 -100 -147q-71 -48 -170 -48q-138 0 -213 97q-59 75 -59 177q0 76 35 135l138 29q-37 -66 -37 -140q0 -71 37.5 -114.5t98.5 -43.5q132 0 132 119v257l145 77v-205q0 -54 45 -58
q49 142 142 231q101 97 231 97q121 0 193 -84q61 -70 61 -173v-19q0 -52 58 -52zM1097 140q30 0 39.5 11t9.5 48v12q0 54 -30 87.5t-78 33.5q-69 0 -130.5 -51.5t-98.5 -140.5h288z" />
    <glyph glyph-name="uniFEBB" unicode="&#x635;" horiz-adv-x="1009" arabic-form="initial" 
d="M319 140q49 142 141 231q102 97 232 97q121 0 193 -84q61 -70 61 -173v-20q0 -93 -58 -145q-51 -46 -131 -46h-439q-70 0 -116 34q-48 -34 -117 -34h-112v140h98q32 0 45 13t13 45v128l145 77v-205q0 -54 45 -58zM801 199v12q0 54 -30 87.5t-78 33.5q-69 0 -130.5 -51.5
t-98.5 -140.5h288q30 0 39.5 11t9.5 48z" />
    <glyph glyph-name="uniFEBC" unicode="&#x635;" horiz-adv-x="1075" arabic-form="medial" 
d="M1004 140h97v-140h-111q-68 0 -116 34q-48 -34 -117 -34h-439q-70 0 -116 34q-48 -34 -117 -34h-112v140h98q32 0 45 13t13 45v128l145 77v-205q0 -54 45 -58q49 142 141 231q102 97 232 97q121 0 193 -84q61 -70 61 -173v-19q0 -52 58 -52zM752 140q30 0 39.5 11t9.5 48
v12q0 54 -30 87.5t-78 33.5q-69 0 -130.5 -51.5t-98.5 -140.5h288z" />
    <glyph glyph-name="uniFEBE" unicode="&#x636;" horiz-adv-x="1420" arabic-form="final" 
d="M1040 540q-34 0 -54.5 20.5t-20.5 54.5t20.5 54t54.5 20q33 0 53 -20t20 -54t-20 -54.5t-53 -20.5zM1349 140h98v-140h-112q-68 0 -116 34q-48 -34 -117 -34h-439q-24 0 -51 5q-21 -94 -100 -147q-71 -48 -170 -48q-138 0 -213 97q-59 75 -59 177q0 76 35 135l138 29
q-37 -66 -37 -140q0 -71 37.5 -114.5t98.5 -43.5q132 0 132 119v257l145 77v-205q0 -54 45 -58q49 142 142 231q101 97 231 97q121 0 193 -84q61 -70 61 -173v-19q0 -52 58 -52zM1097 140q30 0 39.5 11t9.5 48v12q0 54 -30 87.5t-78 33.5q-69 0 -130.5 -51.5t-98.5 -140.5
h288z" />
    <glyph glyph-name="uniFEBF" unicode="&#x636;" horiz-adv-x="1009" arabic-form="initial" 
d="M714 540q-34 0 -54.5 20.5t-20.5 54.5t20.5 54t54.5 20q33 0 53 -20t20 -54t-20 -54.5t-53 -20.5zM319 140q49 142 141 231q102 97 232 97q121 0 193 -84q61 -70 61 -173v-20q0 -93 -58 -145q-51 -46 -131 -46h-439q-70 0 -116 34q-48 -34 -117 -34h-112v140h98
q32 0 45 13t13 45v128l145 77v-205q0 -54 45 -58zM801 199v12q0 54 -30 87.5t-78 33.5q-69 0 -130.5 -51.5t-98.5 -140.5h288q30 0 39.5 11t9.5 48z" />
    <glyph glyph-name="uniFEC0" unicode="&#x636;" horiz-adv-x="1075" arabic-form="medial" 
d="M714 540q-34 0 -54.5 20.5t-20.5 54.5t20.5 54t54.5 20q33 0 53 -20t20 -54t-20 -54.5t-53 -20.5zM1004 140h97v-140h-111q-68 0 -116 34q-48 -34 -117 -34h-439q-70 0 -116 34q-48 -34 -117 -34h-112v140h98q32 0 45 13t13 45v128l145 77v-205q0 -54 45 -58
q49 142 141 231q102 97 232 97q121 0 193 -84q61 -70 61 -173v-19q0 -52 58 -52zM752 140q30 0 39.5 11t9.5 48v12q0 54 -30 87.5t-78 33.5q-69 0 -130.5 -51.5t-98.5 -140.5h288z" />
    <glyph glyph-name="uniFEC2" unicode="&#x637;" horiz-adv-x="970" arabic-form="final" 
d="M997 140v-140h-95q-66 0 -115 33q-45 -33 -113 -33h-654l75 140h137v428l145 77v-271q101 94 227 94q120 0 193 -84q61 -71 61 -173v-19q0 -52 58 -52h81zM669 140q28 0 36 10t8 47v14q0 54 -30 87.5t-78 33.5q-68 0 -129 -51.5t-99 -140.5h292z" />
    <glyph glyph-name="uniFEC3" unicode="&#x637;" horiz-adv-x="818" arabic-form="initial" 
d="M274 374q101 94 227 94q120 0 193 -84q61 -71 61 -173v-21q0 -95 -57 -146q-48 -44 -127 -44h-598v140h156v428l145 77v-271zM610 211q0 54 -30 87.5t-78 33.5q-68 0 -129 -51.5t-99 -140.5h292q28 0 36 10t8 47v14z" />
    <glyph glyph-name="uniFEC4" unicode="&#x637;" horiz-adv-x="867" arabic-form="medial" 
d="M894 140v-140h-95q-66 0 -115 33q-45 -33 -113 -33h-598v140h156v428l145 77v-271q101 94 227 94q120 0 193 -84q61 -71 61 -173v-19q0 -52 58 -52h81zM566 140q28 0 36 10t8 47v14q0 54 -30 87.5t-78 33.5q-68 0 -129 -51.5t-99 -140.5h292z" />
    <glyph glyph-name="uniFEC6" unicode="&#x638;" horiz-adv-x="970" arabic-form="final" 
d="M604 540q-34 0 -54.5 20.5t-20.5 54.5t20.5 54t54.5 20q33 0 53 -20t20 -54t-20 -54.5t-53 -20.5zM997 140v-140h-95q-66 0 -115 33q-45 -33 -113 -33h-654l75 140h137v428l145 77v-271q101 94 227 94q120 0 193 -84q61 -71 61 -173v-19q0 -52 58 -52h81zM669 140
q28 0 36 10t8 47v14q0 54 -30 87.5t-78 33.5q-68 0 -129 -51.5t-99 -140.5h292z" />
    <glyph glyph-name="uniFEC7" unicode="&#x638;" horiz-adv-x="818" arabic-form="initial" 
d="M499 540q-34 0 -54.5 20.5t-20.5 54.5t20.5 54t54.5 20q33 0 53 -20t20 -54t-20 -54.5t-53 -20.5zM274 374q101 94 227 94q120 0 193 -84q61 -71 61 -173v-21q0 -95 -57 -146q-48 -44 -127 -44h-598v140h156v428l145 77v-271zM610 211q0 54 -30 87.5t-78 33.5
q-68 0 -129 -51.5t-99 -140.5h292q28 0 36 10t8 47v14z" />
    <glyph glyph-name="uniFEC8" unicode="&#x638;" horiz-adv-x="867" arabic-form="medial" 
d="M499 540q-34 0 -54.5 20.5t-20.5 54.5t20.5 54t54.5 20q33 0 53 -20t20 -54t-20 -54.5t-53 -20.5zM894 140v-140h-95q-66 0 -115 33q-45 -33 -113 -33h-598v140h156v428l145 77v-271q101 94 227 94q120 0 193 -84q61 -71 61 -173v-19q0 -52 58 -52h81zM566 140
q28 0 36 10t8 47v14q0 54 -30 87.5t-78 33.5q-68 0 -129 -51.5t-99 -140.5h292z" />
    <glyph glyph-name="uniFECA" unicode="&#x639;" horiz-adv-x="693" arabic-form="final" 
d="M321 21q-65 -45 -87 -73t-22 -66q0 -54 36.5 -85.5t100.5 -31.5h3q94 2 185 55v-138q-90 -57 -195 -57q-122 0 -198 75q-72 71 -72 182q0 128 128 216q-65 60 -125 159v53q46 70 118 114t142 44t142 -44.5t119 -115.5v-51q-30 -51 -110 -117h232l2 -140h-286
q-58 0 -113 21zM447 282q-56 51 -112 51q-62 0 -112 -51q54 -80 103 -110q75 49 121 110z" />
    <glyph glyph-name="uniFECB" unicode="&#x639;" horiz-adv-x="581" arabic-form="initial" 
d="M531 140v-140h-558v140h137q-21 49 -21 107q0 106 75 170q61 51 142 51q109 0 177 -95v-126q-75 85 -160 85h-2h-2q-85 -2 -85 -90q0 -48 31 -75t87 -27h179z" />
    <glyph glyph-name="uniFECC" unicode="&#x639;" horiz-adv-x="712" arabic-form="medial" 
d="M738 0h-284q-51 0 -99 16q-48 -16 -99 -16h-283v140h206q-43 48 -84 117v53q46 71 117.5 114.5t142.5 43.5q69 0 141.5 -44.5t119.5 -115.5v-51q-42 -69 -84 -117h205zM467 282q-56 51 -112 51q-62 0 -112 -50q57 -87 112 -116q56 30 112 115z" />
    <glyph glyph-name="uniFECE" unicode="&#x63a;" horiz-adv-x="693" arabic-form="final" 
d="M343 539q-34 0 -54.5 20.5t-20.5 54.5t20.5 54t54.5 20q33 0 53 -20t20 -54t-20 -54.5t-53 -20.5zM321 21q-65 -45 -87 -73t-22 -66q0 -54 36.5 -85.5t100.5 -31.5h3q94 2 185 55v-138q-90 -57 -195 -57q-122 0 -198 75q-72 71 -72 182q0 128 128 216q-65 60 -125 159v53
q46 70 118 114t142 44t142 -44.5t119 -115.5v-51q-30 -51 -110 -117h232l2 -140h-286q-58 0 -113 21zM447 282q-56 51 -112 51q-62 0 -112 -51q54 -80 103 -110q75 49 121 110z" />
    <glyph glyph-name="uniFECF" unicode="&#x63a;" horiz-adv-x="581" arabic-form="initial" 
d="M306 540q-34 0 -54.5 20.5t-20.5 54.5t20.5 54t54.5 20q33 0 53 -20t20 -54t-20 -54.5t-53 -20.5zM531 140v-140h-558v140h137q-21 49 -21 107q0 106 75 170q61 51 142 51q109 0 177 -95v-126q-75 85 -160 85h-2h-2q-85 -2 -85 -90q0 -48 31 -75t87 -27h179z" />
    <glyph glyph-name="uniFED0" unicode="&#x63a;" horiz-adv-x="712" arabic-form="medial" 
d="M354 540q-34 0 -54.5 20.5t-20.5 54.5t20.5 54t54.5 20q33 0 53 -20t20 -54t-20 -54.5t-53 -20.5zM738 0h-284q-51 0 -99 16q-48 -16 -99 -16h-283v140h206q-43 48 -84 117v53q46 71 117.5 114.5t142.5 43.5q69 0 141.5 -44.5t119.5 -115.5v-51q-42 -69 -84 -117h205z
M467 282q-56 51 -112 51q-62 0 -112 -50q57 -87 112 -116q56 30 112 115z" />
    <glyph glyph-name="uniFED2" unicode="&#x641;" horiz-adv-x="1013" arabic-form="final" 
d="M731 524q-34 0 -54.5 20.5t-20.5 54.5t20.5 54t54.5 20q33 0 53 -20t20 -54t-20 -54.5t-53 -20.5zM897 140h143v-140h-230q-49 0 -86 8q-35 -8 -86 -8h-367q-87 0 -137 59q-44 51 -44 132v92l145 77v-161q0 -33 12.5 -46t44.5 -13h259q-29 55 -29 109q0 101 60 162
q55 57 142 57q100 0 156 -73q46 -59 46 -146q0 -54 -29 -109zM724 153q28 15 45 44.5t17 60.5q0 74 -62 74q-61 0 -61 -73q0 -32 17 -61.5t44 -44.5z" />
    <glyph glyph-name="uniFED3" unicode="&#x641;" horiz-adv-x="571" arabic-form="initial" 
d="M303 525q-34 0 -54.5 20.5t-20.5 54.5t20.5 54t54.5 20q33 0 53 -20t20 -54t-20 -54.5t-53 -20.5zM-27 0v140h148q-22 42 -22 94q0 112 61 176q55 58 144 58q91 0 142 -58q45 -51 45 -131v-88q0 -86 -52 -139q-50 -52 -137 -52h-329zM346 283q0 49 -42 49q-62 0 -62 -93
q0 -99 60 -99q44 0 44 48v95z" />
    <glyph glyph-name="uniFED4" unicode="&#x641;" horiz-adv-x="582" arabic-form="medial" 
d="M290 524q-34 0 -54.5 20.5t-20.5 54.5t20.5 54t54.5 20q33 0 53 -20t20 -54t-20 -54.5t-53 -20.5zM464 140h144v-140h-231q-51 0 -86 8q-36 -8 -86 -8h-232v140h145q-29 55 -29 109q0 101 59 162q55 57 143 57q100 0 156 -73q46 -59 46 -146q0 -54 -29 -109zM291 154
q27 14 44 43.5t17 60.5q0 74 -61 74q-62 0 -62 -73q0 -32 17 -61.5t45 -43.5z" />
    <glyph glyph-name="uniFED6" unicode="&#x642;" horiz-adv-x="805" arabic-form="final" 
d="M428 523q-34 0 -54.5 21t-20.5 55q0 33 20.5 53t54.5 20q33 0 53 -20t20 -53q0 -35 -20 -55.5t-53 -20.5zM594 523q-33 0 -53.5 21t-20.5 55q0 33 20.5 53t53.5 20t53.5 -20t20.5 -53q0 -35 -20 -55.5t-54 -20.5zM706 0q-23 -95 -111 -145q-80 -45 -205 -45
q-171 0 -256 97q-64 72 -64 177q0 76 35 135l138 29q-37 -66 -37 -140q0 -76 47.5 -117t136.5 -41q126 0 159 56l-15 3q-105 13 -163 83q-49 59 -49 142q0 112 61 176q55 58 144 58q91 0 142 -58q45 -51 45 -131v-139h118v-140h-126zM569 144v139q0 49 -42 49q-62 0 -62 -93
q0 -80 78 -91z" />
    <glyph glyph-name="uniFED7" unicode="&#x642;" horiz-adv-x="571" arabic-form="initial" 
d="M222 523q-34 0 -54.5 21t-20.5 55q0 33 20.5 53t54.5 20q33 0 53 -20t20 -53q0 -35 -20 -55.5t-53 -20.5zM388 523q-34 0 -54 21t-20 55q0 33 20 53t54 20q33 0 53.5 -20t20.5 -53q0 -35 -20.5 -55.5t-53.5 -20.5zM-27 0v140h148q-22 40 -22 94q0 112 61 176
q55 58 144 58q91 0 142 -58q45 -51 45 -131v-88q0 -86 -52 -139q-50 -52 -137 -52h-329zM346 283q0 49 -42 49q-62 0 -62 -93q0 -99 60 -99q44 0 44 48v95z" />
    <glyph glyph-name="uniFED8" unicode="&#x642;" horiz-adv-x="582" arabic-form="medial" 
d="M208 523q-34 0 -54.5 21t-20.5 55q0 33 20.5 53t54.5 20q33 0 53 -20t20 -53q0 -35 -20 -55.5t-53 -20.5zM374 523q-34 0 -54 21t-20 55q0 33 20 53t54 20q33 0 53.5 -20t20.5 -53q0 -35 -20.5 -55.5t-53.5 -20.5zM464 140h144v-140h-231q-51 0 -86 8q-36 -8 -86 -8h-232
v140h145q-29 55 -29 109q0 101 59 162q55 57 143 57q100 0 156 -73q46 -59 46 -146q0 -54 -29 -109zM291 154q27 14 44 43.5t17 60.5q0 74 -61 74q-62 0 -62 -73q0 -32 17 -61.5t45 -43.5z" />
    <glyph glyph-name="uniFEDA" unicode="&#x643;" horiz-adv-x="946" arabic-form="final" 
d="M875 140h98v-140h-112q-70 0 -116 34q-48 -34 -117 -34h-357q-87 0 -137 59q-44 51 -44 132v92l145 77v-161q0 -33 12.5 -46t44.5 -13h323q32 0 44.5 13t12.5 46v369l145 77v-447q0 -32 13 -45t45 -13zM491 516q74 -14 74 -95q0 -43 -24.5 -68.5t-65.5 -25.5h-156l35 66
h114q32 0 32 32q0 39 -50 39q-32 0 -58 -22v60l88 97h84z" />
    <glyph glyph-name="uniFEDB" unicode="&#x643;" horiz-adv-x="509" arabic-form="initial" 
d="M224 449q65 -9 117 -44q108 -71 108 -205v-12q0 -92 -59 -143q-50 -45 -130 -45h-287v140h273q57 0 57 53v5q0 60 -53 90q-35 20 -86 20q-50 0 -107 -20v140l195 217h146z" />
    <glyph glyph-name="uniFEDC" unicode="&#x643;" horiz-adv-x="567" arabic-form="medial" 
d="M506 140h87v-140h-101q-68 0 -116 33q-49 -33 -116 -33h-287v140h273q57 0 57 53v5q0 59 -53 90q-35 20 -86 20t-107 -20v140l195 217h146l-174 -196q67 -9 119 -45q106 -71 106 -204v-2q0 -33 12.5 -45.5t44.5 -12.5z" />
    <glyph glyph-name="uniFEDE" unicode="&#x644;" horiz-adv-x="796" arabic-form="final" 
d="M709 140h114v-140h-112q-36 0 -71 11q-26 -98 -109 -153q-74 -49 -173 -49q-147 0 -227 95q-61 74 -61 174q0 76 34 135l143 32q-38 -64 -38 -146q0 -70 39.5 -110t109.5 -40q68 0 107.5 38.5t39.5 104.5v476l146 77v-447q0 -32 13 -45t45 -13z" />
    <glyph glyph-name="uniFEDF" unicode="&#x644;" horiz-adv-x="348" arabic-form="initial" 
d="M-27 0v140h65q42 0 58.5 17.5t16.5 61.5v349l145 77v-427q0 -102 -62 -162q-57 -56 -151 -56h-72z" />
    <glyph glyph-name="uniFEE0" unicode="&#x644;" horiz-adv-x="387" arabic-form="medial" 
d="M316 140h97v-140h-111q-77 0 -124 40q-55 -40 -133 -40h-72v140h65q42 0 58.5 17.5t16.5 61.5v349l145 77v-447q0 -32 12.5 -45t45.5 -13z" />
    <glyph glyph-name="uniFEE2" unicode="&#x645;" horiz-adv-x="689" arabic-form="final" 
d="M617 140h99v-140h-112q-63 0 -110 30q-49 -30 -128 -30h-143q-32 0 -45 -13t-13 -45v-180l-145 -77v264q0 85 50 137q43 45 112 53q-14 44 -14 95q0 112 61 176q55 58 144 58q91 0 142 -58q45 -51 45 -131v-81q0 -33 12.5 -45.5t44.5 -12.5zM415 179v104q0 49 -42 49
q-62 0 -62 -93q0 -99 61 -99q43 0 43 39z" />
    <glyph glyph-name="uniFEE3" unicode="&#x645;" horiz-adv-x="596" arabic-form="initial" 
d="M129 279q0 92 57 144q50 45 130 45q101 0 157 -74q48 -63 48 -160q0 -111 -61 -176q-53 -58 -137 -58q-79 0 -128 30q-45 -30 -110 -30h-112v140h98q32 0 45 13t13 45v81zM274 179q0 -39 42 -39q62 0 62 99q0 93 -62 93q-42 0 -42 -49v-104z" />
    <glyph glyph-name="uniFEE4" unicode="&#x645;" horiz-adv-x="673" arabic-form="medial" 
d="M601 140h98v-140h-111q-68 0 -113 32q-52 -52 -139 -52q-86 0 -138 51q-47 -31 -113 -31h-112v140h98q32 0 45 13t13 45v28q0 119 62 184q55 58 145 58q103 0 159 -75q48 -64 49 -167v-28q0 -33 12.5 -45.5t44.5 -12.5zM336 120q63 0 63 109q0 103 -63 103
q-62 0 -62 -103q0 -109 62 -109z" />
    <glyph glyph-name="uniFEE6" unicode="&#x646;" horiz-adv-x="748" arabic-form="final" 
d="M334 430q-34 0 -54.5 20.5t-20.5 54.5t20.5 54t54.5 20q33 0 53 -20t20 -54t-20 -54.5t-53 -20.5zM677 140h98v-140h-112q-24 0 -51 5q-21 -94 -100 -147q-71 -48 -170 -48q-138 0 -213 97q-59 75 -59 177q0 76 35 135l138 29q-37 -66 -37 -140q0 -71 37.5 -114.5
t98.5 -43.5q132 0 132 119v304l145 77v-252q0 -32 13 -45t45 -13z" />
    <glyph glyph-name="uniFEE7" unicode="&#x646;" horiz-adv-x="364" arabic-form="initial" 
d="M207 540q-34 0 -54.5 20.5t-20.5 54.5t20.5 54t54.5 20q33 0 53 -20t20 -54t-20 -54.5t-53 -20.5zM-27 0v140h98q32 0 45 13t13 45v175l145 77v-258q0 -93 -58 -146q-51 -46 -131 -46h-112z" />
    <glyph glyph-name="uniFEE8" unicode="&#x646;" horiz-adv-x="403" arabic-form="medial" 
d="M200 540q-34 0 -54.5 20.5t-20.5 54.5t20.5 54t54.5 20q33 0 53 -20t20 -54t-20 -54.5t-53 -20.5zM429 140v-140h-111q-70 0 -116 34q-48 -34 -117 -34h-112v140h98q32 0 45 13t13 45v175l145 77v-252q0 -32 13 -45t45 -13h97z" />
    <glyph glyph-name="uniFEEA" unicode="&#x647;" horiz-adv-x="551" arabic-form="final" 
d="M480 140h98v-140h-112q-89 0 -141 55q-40 -26 -98 -26q-94 0 -150 70q-47 58 -47 137q0 100 67 163q54 52 126 52q27 0 54 -8v20l145 76v-341q0 -32 13 -45t45 -13zM277 302q-19 12 -43 12q-28 0 -44.5 -22t-16.5 -59q0 -81 63 -81q28 0 42 16q-1 8 -1 24v110z" />
    <glyph glyph-name="uniFEEB" unicode="&#x647;" horiz-adv-x="659" arabic-form="initial" 
d="M89 312q26 83 91 131t153 48q118 0 193 -76q71 -72 71 -184v-40q0 -94 -60 -146q-51 -45 -133 -45h-135q-34 0 -65 10q-30 -10 -63 -10h-168v140h89q-10 33 -10 65q0 64 37 107zM451 199v32q0 57 -33 90t-88 33q-31 0 -52 -10q79 -39 79 -139q0 -34 -11 -65h57
q30 0 39 11t9 48zM205 149q54 17 54 69q0 25 -15.5 41t-38.5 16q-25 0 -40 -16t-15 -41q0 -52 55 -69z" />
    <glyph glyph-name="uniFEEC" unicode="&#x647;" horiz-adv-x="725" arabic-form="medial" 
d="M654 140h97v-140h-111q-70 0 -116 34q-50 -34 -120 -34h-135q-34 0 -65 10q-30 -10 -63 -10h-168v140h89q-10 33 -10 65q0 64 37 107q26 83 91 131t153 48q118 0 193 -76q71 -72 71 -184v-33q0 -33 12.5 -45.5t44.5 -12.5zM403 140q30 0 39 11t9 48v32q0 57 -33 90
t-88 33q-31 0 -52 -10q79 -39 79 -139q0 -34 -11 -65h57zM205 149q54 17 54 69q0 25 -15.5 41t-38.5 16q-25 0 -40 -16t-15 -41q0 -52 55 -69z" />
    <glyph glyph-name="uniFEEE" unicode="&#x648;" horiz-adv-x="553" arabic-form="final" 
d="M580 0h-119q-7 -90 -80 -144q-60 -45 -141 -45q-65 0 -131 37v127q60 -34 114 -34q34 0 62 19t32 44q-22 1 -53 5q-100 13 -157 84q-47 60 -47 141q0 112 62 176q55 58 146 58q96 0 149 -58q45 -50 45 -131v-139h118v-140zM317 278q0 54 -49 54q-65 0 -65 -93
q0 -97 114 -97v136z" />
    <glyph glyph-name="uniFEF0" unicode="&#x649;" horiz-adv-x="689" arabic-form="final" 
d="M707 0q-14 -94 -110 -145q-83 -45 -207 -45q-171 0 -256 97q-64 72 -64 177q0 76 35 135l138 29q-37 -66 -37 -140q0 -166 184 -166q130 0 165 58h-94l72 140h177v-140h-3z" />
    <glyph glyph-name="uniFEF2" unicode="&#x64a;" horiz-adv-x="689" arabic-form="final" 
d="M707 0q-14 -94 -110 -145q-83 -45 -207 -45q-171 0 -256 97q-64 72 -64 177q0 76 35 135l138 29q-37 -66 -37 -140q0 -166 184 -166q130 0 165 58h-94l72 140h177v-140h-3zM308 -403q-33 0 -53.5 20.5t-20.5 54.5q0 33 20.5 53.5t53.5 20.5t53.5 -20.5t20.5 -53.5
q0 -34 -20 -54.5t-54 -20.5zM475 -403q-33 0 -53.5 20.5t-20.5 54.5q0 33 20.5 53.5t53.5 20.5t53.5 -20.5t20.5 -53.5q0 -34 -20 -54.5t-54 -20.5z" />
    <glyph glyph-name="uniFEF3" unicode="&#x64a;" horiz-adv-x="364" arabic-form="initial" 
d="M-27 0v140h98q32 0 45 13t13 45v175l145 77v-258q0 -93 -58 -146q-50 -46 -131 -46h-112zM25 -235q-34 0 -54.5 21t-20.5 55q0 33 20.5 53t54.5 20q33 0 53 -20t20 -53q0 -35 -20 -55.5t-53 -20.5zM191 -235q-33 0 -53.5 21t-20.5 55q0 33 20.5 53t53.5 20t53.5 -20
t20.5 -53q0 -35 -20 -55.5t-54 -20.5z" />
    <glyph glyph-name="uniFEF4" unicode="&#x64a;" horiz-adv-x="403" arabic-form="medial" 
d="M332 140h97v-140h-111q-70 0 -116 34q-48 -34 -117 -34h-112v140h98q32 0 45 13t13 45v175l145 77v-252q0 -32 12.5 -45t45.5 -13zM61 -86q33 0 53.5 -20.5t20.5 -53.5q0 -34 -20.5 -54.5t-53.5 -20.5q-34 0 -54.5 21t-20.5 54t20.5 53.5t54.5 20.5zM228 -86q33 0 53 -20
t20 -54t-20 -54.5t-53 -20.5q-34 0 -54.5 21t-20.5 54t20.5 53.5t54.5 20.5z" />
    <glyph glyph-name=".notdef" horiz-adv-x="247" 
d="M25 0v633h197v-633h-197zM197 25v583h-147v-583h147z" />
    <glyph glyph-name="glyph1" 
 />
    <glyph glyph-name="glyph2" horiz-adv-x="247" 
 />
    <glyph glyph-name="space" unicode=" " horiz-adv-x="247" 
 />
    <glyph glyph-name="space" unicode="&#xa0;" horiz-adv-x="247" 
 />
    <glyph glyph-name="exclam" unicode="!" horiz-adv-x="302" 
d="M75 187v446h145v-446h-145zM238 58v-2q0 -36 -23.5 -59t-61.5 -23t-61.5 23.5t-23.5 60.5v2v2q3 35 26 56.5t59 21.5q38 0 61.5 -23t23.5 -59z" />
    <glyph glyph-name="quotedbl" unicode="&#x22;" horiz-adv-x="382" 
d="M70 416v173l104 56v-173zM209 416v173l103 56v-173z" />
    <glyph glyph-name="numbersign" unicode="#" horiz-adv-x="470" 
d="M325 128l-28 -128h-92l30 128h-78l-28 -128h-93q13 61 29 128h-63v109h83q4 17 12 50q9 38 13 56h-79v108h104l33 158h92l-33 -158h74l37 158h90l-34 -158h75v-108h-99q-3 -16 -7 -34q-11 -48 -17 -72h90v-109h-111zM202 343q-4 -18 -13 -57q-8 -32 -11 -49h76q3 11 7 31
q11 49 19 75h-78z" />
    <glyph glyph-name="dollar" unicode="$" horiz-adv-x="550" 
d="M244 643v57h51v-55q102 -5 193 -68q-20 -30 -65 -93q-69 29 -128 36v-129l10 -4l9 -4q100 -42 144 -88t44 -109q-2 -49 -15 -82q-22 -53 -73 -82q-50 -30 -119 -33v-63h-51v63q-36 3 -70 13t-97 45l-3 2q-14 8 -22 12l68 93q65 -29 124 -32v154l-8 3l-7 2
q-162 57 -162 187q4 88 65 135q47 36 112 40zM244 518q-36 -11 -37 -51q0 -27 37 -50v101zM295 126q48 15 49 70q-1 32 -49 58v-128z" />
    <glyph glyph-name="percent" unicode="%" horiz-adv-x="766" 
d="M188 0l291 565h105l-291 -565h-105zM298 412q0 -73 -33 -116.5t-89 -43.5q-59 0 -92.5 42.5t-33.5 116.5q0 70 34 111t92 41q54 0 88 -42t34 -109zM220 410q0 35 -13.5 59t-32.5 24q-20 0 -33.5 -23.5t-13.5 -59.5q0 -39 13 -63.5t34 -24.5q20 0 33 25t13 63zM716 156
q0 -73 -33 -116.5t-89 -43.5q-59 0 -92.5 42.5t-33.5 116.5q0 70 34 111t92 41q54 0 88 -42t34 -109zM639 154q0 35 -13.5 59t-33.5 24t-33.5 -24t-13.5 -59q0 -39 13 -63.5t34 -24.5q20 0 33.5 25t13.5 63z" />
    <glyph glyph-name="ampersand" unicode="&#x26;" horiz-adv-x="571" 
d="M374 329h135v-39q0 -87 -52 -168q47 -54 112 -122h-154q-5 5 -12 15q-9 12 -16 18q-50 -45 -151 -45q-99 0 -150 62q-39 48 -39 114q0 102 91 178l1 -3q-71 70 -71 145t45.5 118t123.5 43q83 0 169 -67q-10 -14 -31 -47l-5 -8q-4 -6 -13 -20l-3 -5q-59 31 -110 31
q-28 0 -45 -14.5t-17 -37.5q0 -36 43 -83l3 -4q6 -7 10 -10q29 -35 85 -104q54 -66 81 -97l-42 48q12 18 12 60v10v32zM306 130q-15 20 -49 61q-37 44 -53 68q-19 -25 -19 -69v-7q0 -74 66 -74q37 0 55 21z" />
    <glyph glyph-name="quotesingle" unicode="'" horiz-adv-x="244" 
d="M70 416v173l104 56v-173z" />
    <glyph glyph-name="parenleft" unicode="(" horiz-adv-x="408" 
d="M346 645q-62 -76 -101.5 -183.5t-39.5 -200.5q0 -154 70 -300q19 -38 40 -69.5t28 -31.5h1h-118q1 -7 -26 25q-57 69 -89.5 168.5t-32.5 207.5q0 103 41 209.5t107 174.5h120z" />
    <glyph glyph-name="parenright" unicode=")" horiz-adv-x="408" 
d="M61 645h120q66 -68 107 -174.5t41 -209.5q0 -178 -82 -318q-25 -42 -51 -70q-16 -17 -15 -13h-119h1q9 0 35.5 42t45.5 88q57 134 57 271q0 93 -39 200.5t-101 183.5z" />
    <glyph glyph-name="asterisk" unicode="*" horiz-adv-x="318" 
d="M143 545l-1 101q19 -4 66 -16q23 -6 37 -10q-8 -13 -22 -36q-23 -38 -36 -57l105 42l11 -119l-16 5l-14 3q-54 15 -79 20q12 -14 40 -48q17 -20 28 -33q-19 -7 -59 -25q-35 -14 -49 -20q-1 26 -2 72l-1 13v21l-5 -7q-10 -13 -15 -20q-28 -39 -41 -58l-69 87q20 9 63 25
q26 9 36 14q-15 5 -38 11q-45 14 -67 22l64 94q7 -10 23 -28l3 -5q26 -32 38 -48z" />
    <glyph glyph-name="plus" unicode="+" horiz-adv-x="491" 
d="M182 172h-153v108h153v174h127v-174h154v-108h-154v-172h-127v172z" />
    <glyph glyph-name="comma" unicode="," horiz-adv-x="292" 
d="M61 -36q38 13 47 28q-45 9 -45 69q0 34 24 57t61 23q36 0 60 -28.5t24 -70.5q0 -75 -53 -124q-25 -23 -74 -35z" />
    <glyph glyph-name="hyphen" unicode="-" horiz-adv-x="298" 
d="M287 184h-275v108h275v-108z" />
    <glyph glyph-name="period" unicode="." horiz-adv-x="350" 
d="M262 79v-2q0 -36 -23.5 -59t-61.5 -23t-61.5 23.5t-23.5 60.5v2v2q3 35 26 56.5t59 21.5q38 0 61.5 -23t23.5 -59z" />
    <glyph glyph-name="slash" unicode="/" horiz-adv-x="339" 
d="M380 633l-313 -663h-105l310 663h108z" />
    <glyph glyph-name="zero" unicode="0" horiz-adv-x="564" 
d="M280 645q116 0 188 -111q60 -92 60 -219q0 -152 -76 -244q-68 -83 -172 -83q-121 0 -188 106q-57 89 -57 221q0 148 75 243q67 87 170 87zM282 525q-101 0 -101 -204q0 -103 29 -162q26 -53 69 -53q48 0 75.5 57t27.5 158q0 204 -100 204z" />
    <glyph glyph-name="one" unicode="1" horiz-adv-x="408" 
d="M315 633v-633h-141v472q-13 -9 -39 -24q-36 -21 -53 -34q-13 23 -43 73l-4 6l-18 30q34 26 102 72l11 7q28 20 44 31h141z" />
    <glyph glyph-name="two" unicode="2" horiz-adv-x="486" 
d="M45 0v119l154 181q68 79 83 104t15 59q0 28 -20 46t-50 18q-59 0 -131 -49l-59 86q103 82 216 82q87 0 138 -46q51 -45 51 -128q0 -86 -76 -189q-29 -39 -149 -171h220v-112h-392z" />
    <glyph glyph-name="three" unicode="3" horiz-adv-x="508" 
d="M122 279v114h98h8q35 0 48.5 14t13.5 51q0 32 -18 51t-48 19q-62 0 -127 -58l-51 91q84 84 191 84q88 0 145 -50q55 -47 55 -125q0 -50 -16 -77t-57 -46q96 -40 96 -148q0 -120 -81 -173q-56 -37 -141 -37q-46 0 -107 26t-97 61l57 85q52 -50 138 -50q39 0 62 23t23 62
q0 83 -94 83h-98z" />
    <glyph glyph-name="four" unicode="4" horiz-adv-x="551" 
d="M22 233q126 193 263 400h138v-400h102v-112h-102v-121h-140v121h-261v112zM142 233h141v221q-24 -37 -60 -94q-53 -83 -81 -127z" />
    <glyph glyph-name="five" unicode="5" horiz-adv-x="539" 
d="M450 521h-218v-117q12 3 27 3q117 0 176 -56q55 -52 55 -146q0 -96 -72 -160q-64 -57 -155 -57q-125 0 -215 91l58 89q75 -57 143 -57q98 0 98 85q0 100 -133 100q-48 0 -103 -13l-4 -1q-10 -3 -14 -4v355h357v-112z" />
    <glyph glyph-name="six" unicode="6" horiz-adv-x="537" 
d="M466 581l-48 -89q-69 33 -121 33q-48 0 -77 -37t-29 -97v-3q33 26 97 26q93 0 146 -51q55 -54 55 -158q0 -87 -57 -150q-60 -67 -163 -67q-221 0 -221 299q0 358 245 358q47 0 96 -18t77 -46zM191 291q1 -99 12 -136q17 -58 64 -58q30 0 52.5 32.5t22.5 75.5
q0 110 -87 110q-37 0 -64 -24z" />
    <glyph glyph-name="seven" unicode="7" horiz-adv-x="430" 
d="M254 521h-225v112h379v-105q-49 -114 -161 -372l-67 -156h-148q32 77 103 240q80 185 119 281z" />
    <glyph glyph-name="eight" unicode="8" horiz-adv-x="558" 
d="M184 320q-61 18 -87.5 50t-26.5 90q0 91 74 143q59 42 143 42q88 0 145 -57q53 -53 53 -137q0 -47 -30.5 -84t-78.5 -48q131 -34 131 -161q0 -87 -76 -133q-60 -37 -152 -37q-107 0 -171 48q-60 46 -60 123q0 72 51 120q39 36 85 41zM285 368q25 9 43 36.5t18 57.5
q0 33 -18.5 54.5t-48.5 21.5q-32 0 -52 -22t-20 -57q0 -29 21.5 -54.5t56.5 -36.5zM288 272q-94 -27 -94 -102q0 -32 24.5 -52.5t61.5 -20.5q35 0 57.5 19.5t22.5 49.5q0 35 -20 64t-52 42z" />
    <glyph glyph-name="nine" unicode="9" horiz-adv-x="537" 
d="M76 52l48 89q69 -33 121 -33q48 0 77.5 37t29.5 97v4q-34 -27 -97 -27q-94 0 -147 51q-55 54 -55 158q0 87 57 150q60 67 163 67q221 0 221 -299q0 -358 -245 -358q-47 0 -96 18t-77 46zM352 343q-1 12 -2 26q-3 87 -15 119q-17 49 -60 49q-30 0 -52.5 -33t-22.5 -76
q0 -110 87 -110q37 0 65 25z" />
    <glyph glyph-name="colon" unicode=":" horiz-adv-x="310" 
d="M262 319v-2q0 -36 -23.5 -59t-61.5 -23t-61.5 23.5t-23.5 60.5v2v2q3 35 26 56.5t59 21.5q38 0 61.5 -23t23.5 -59zM262 79v-2q0 -36 -23.5 -59t-61.5 -23t-61.5 23.5t-23.5 60.5v2v2q3 35 26 56.5t59 21.5q38 0 61.5 -23t23.5 -59z" />
    <glyph glyph-name="semicolon" unicode=";" horiz-adv-x="292" 
d="M60 317q3 38 25 60.5t57 22.5q34 0 57.5 -24.5t23.5 -58.5t-23.5 -57t-57.5 -23q-35 0 -57.5 22t-24.5 58zM61 -36q37 13 47 28q-45 9 -45 69q0 34 24 57t61 23q35 0 59 -28.5t24 -70.5q0 -75 -53 -124q-25 -23 -73 -35z" />
    <glyph glyph-name="less" unicode="&#x3c;" horiz-adv-x="522" 
d="M485 -15l-456 170v159l456 165v-110l-364 -134l364 -138v-112z" />
    <glyph glyph-name="equal" unicode="=" horiz-adv-x="514" 
d="M486 256h-457v107h457v-107zM486 91h-457v109h457v-109z" />
    <glyph glyph-name="greater" unicode="&#x3e;" horiz-adv-x="522" 
d="M38 -15v112l364 138l-364 134v110l456 -165v-159z" />
    <glyph glyph-name="question" unicode="?" horiz-adv-x="401" 
d="M237 155h-132v70v8q0 52 12.5 76t57.5 58q67 50 67 111q0 26 -21 45.5t-49 19.5q-20 0 -48 -12.5t-44 -28.5l-51 75q69 68 173 68q85 0 131 -59q35 -45 35 -104q0 -88 -73 -166l-14 -14q-44 -39 -44 -83v-64zM96 58q0 30 21 51.5t51 21.5q29 0 50 -21.5t21 -51.5
q0 -29 -21 -49.5t-50 -20.5q-30 0 -51 20t-21 50z" />
    <glyph glyph-name="at" unicode="@" horiz-adv-x="692" 
d="M429 -82l3 -90q-44 -3 -72 -3h-2q-145 1 -238 99q-85 90 -85 227q0 152 104 241q88 74 214 74q132 0 221 -85q84 -79 84 -199q0 -77 -38 -132q-44 -62 -123 -62q-41 0 -66.5 15.5t-27.5 40.5q-25 -35 -43.5 -45.5t-56.5 -10.5q-52 0 -89 41.5t-37 100.5q0 87 58 139
q44 40 99 40q34 0 47 -12q5 7 10 13h102v-189q0 -2 -1 -6v-5q0 -29 13 -29q43 0 43 101q0 96 -72 151q-55 41 -123 41q-97 0 -153 -65q-51 -59 -51 -155q0 -135 96 -196q63 -40 151 -42h2q15 0 31 2zM368 218q-18 4 -29 4q-37 0 -37 -74q0 -64 33 -64q20 0 26.5 10.5
t6.5 42.5v81z" />
    <glyph glyph-name="A" unicode="A" horiz-adv-x="587" 
d="M236 633h116l234 -633h-143q-17 49 -40 129h-219q-23 -71 -42 -129h-140zM295 447q-22 -61 -70 -202h138q-43 125 -68 202z" />
    <glyph glyph-name="B" unicode="B" horiz-adv-x="555" 
d="M77 1v631q74 13 188 13q126 0 188 -60q49 -48 49 -125q0 -46 -39.5 -84t-85.5 -38h-2h-1v-1q67 -7 106 -50.5t39 -110.5q0 -95 -81 -144q-70 -44 -188 -44q-103 0 -173 13zM218 527v-136h69q77 0 77 67q0 76 -95 76q-23 0 -51 -7zM218 278v-171q23 -9 63 -9h3q89 0 89 79
q0 101 -93 101h-62z" />
    <glyph glyph-name="C" unicode="C" horiz-adv-x="571" 
d="M527 561l-54 -90q-73 54 -130 54q-74 0 -117 -58t-43 -157q0 -78 43 -136q47 -63 128 -63q52 0 127 47l54 -84q-83 -86 -198 -86q-165 0 -245 122q-55 85 -55 200q0 154 78 244q78 91 220 91q94 0 192 -84z" />
    <glyph glyph-name="D" unicode="D" horiz-adv-x="630" 
d="M77 1v631q13 4 74.5 8.5t102.5 4.5q172 0 263 -100q77 -85 77 -222q0 -171 -99 -257q-90 -78 -253 -78q-101 0 -165 13zM218 528v-425q17 -5 39 -5h4h1q185 0 185 221q0 110 -61 167q-50 46 -127 46h-6q-13 0 -35 -4z" />
    <glyph glyph-name="E" unicode="E" horiz-adv-x="548" 
d="M73 633h421v-112h-280v-139h233v-112h-233v-158h293v-112h-434v633z" />
    <glyph glyph-name="F" unicode="F" horiz-adv-x="535" 
d="M73 0v633h421v-112h-280v-140h233v-112h-233v-269h-141z" />
    <glyph glyph-name="G" unicode="G" horiz-adv-x="606" 
d="M527 561l-54 -90q-73 54 -140 54q-64 0 -107 -61.5t-43 -152.5q0 -97 57 -156q46 -48 109 -48q38 0 69 11v120h-113v123h246v-307q-71 -38 -119 -52t-111 -14q-153 0 -229 117q-55 86 -55 210q0 147 85 242q79 88 203 88q115 0 202 -84z" />
    <glyph glyph-name="H" unicode="H" horiz-adv-x="696" 
d="M77 0v633h138v-251h264v251h141v-633h-141v270h-264v-270h-138z" />
    <glyph glyph-name="I" unicode="I" horiz-adv-x="292" 
d="M215 633v-633h-138v633h138z" />
    <glyph glyph-name="J" unicode="J" horiz-adv-x="271" 
d="M195 633v-656q0 -145 -141 -145q-84 0 -152 53l47 78q41 -27 78 -27q29 0 29 48v649h139z" />
    <glyph glyph-name="K" unicode="K" horiz-adv-x="629" 
d="M210 633v-258v1q87 119 185 257h173q-123 -165 -224 -298q132 -158 277 -335h-187q-95 127 -221 293h-3v-293h-133v633h133z" />
    <glyph glyph-name="L" unicode="L" horiz-adv-x="494" 
d="M77 0v633h141v-521h235v-112h-376z" />
    <glyph glyph-name="M" unicode="M" horiz-adv-x="845" 
d="M768 633v-633h-141v513q-52 -225 -147 -513h-119q-112 343 -146 507v-507h-138v633h198q85 -241 144 -470q60 218 142 470h207z" />
    <glyph glyph-name="N" unicode="N" horiz-adv-x="727" 
d="M77 0v633h116q108 -135 317 -424v424h141v-633h-119q-103 121 -317 410v-410h-138z" />
    <glyph glyph-name="O" unicode="O" horiz-adv-x="652" 
d="M327 645q147 0 227 -117q62 -91 62 -220q0 -148 -82 -237q-77 -83 -207 -83q-150 0 -228 107q-62 85 -62 213q0 151 81 245q78 92 209 92zM327 106q142 0 142 202q0 107 -41 165q-38 52 -101 52q-69 0 -106.5 -57t-37.5 -160q0 -202 144 -202z" />
    <glyph glyph-name="P" unicode="P" horiz-adv-x="540" 
d="M77 0v632q11 3 78.5 8t103.5 5q245 0 245 -199q0 -128 -87 -186q-56 -37 -129 -37q-16 0 -42.5 3t-27.5 5v-231h-141zM218 345q25 -11 60 -11t56.5 28t21.5 74q0 96 -79 96q-53 0 -59 -7v-180z" />
    <glyph glyph-name="Q" unicode="Q" horiz-adv-x="661" 
d="M497 34q57 -65 127 -141h-164l-83 97q-21 -2 -50 -2q-150 0 -228 105q-62 84 -62 210q0 159 85 254q78 88 205 88q147 0 227 -118q62 -93 62 -224q0 -181 -119 -269zM183 303q0 -197 144 -197q142 0 142 197q0 110 -41 169q-38 53 -101 53q-69 0 -106.5 -58t-37.5 -164z
" />
    <glyph glyph-name="R" unicode="R" horiz-adv-x="567" 
d="M77 0v632q11 3 78.5 8t103.5 5q245 0 245 -199q0 -108 -83 -182l123 -264h-142l-104 226q-13 -3 -27 -3h-7q-32 2 -46 7v-230h-141zM218 345q27 -8 56 -8h6q76 1 76 109q0 86 -79 86q-53 0 -59 -7v-180z" />
    <glyph glyph-name="S" unicode="S" horiz-adv-x="535" 
d="M37 66l63 87q55 -38 147 -38q98 0 98 75q0 45 -113 86q-172 62 -172 195q0 81 60 129q56 45 151 45q107 0 202 -66q-18 -27 -60 -87q-84 35 -144 35q-76 0 -76 -57q0 -24 20.5 -40.5t80.5 -40.5q104 -40 150.5 -89t46.5 -116q0 -100 -74 -153q-60 -43 -151 -43
q-106 0 -229 78z" />
    <glyph glyph-name="T" unicode="T" horiz-adv-x="541" 
d="M193 521h-181v112h518v-112h-195v-521h-142v521z" />
    <glyph glyph-name="U" unicode="U" horiz-adv-x="647" 
d="M77 633h142v-384q0 -143 105 -143q108 0 108 143v384h139v-367q0 -278 -247 -278t-247 278v367z" />
    <glyph glyph-name="V" unicode="V" horiz-adv-x="572" 
d="M286 228l140 405h145l-232 -633h-107l-230 633h143z" />
    <glyph glyph-name="W" unicode="W" horiz-adv-x="782" 
d="M464 633l104 -405q14 90 44 259q16 94 25 146h144l-150 -633h-115q-50 176 -126 428l-17 -59q-73 -242 -110 -369h-116q-33 141 -97 422l-13 56l-35 155h143q27 -157 66 -405q28 109 89 334l9 33l10 38h145z" />
    <glyph glyph-name="X" unicode="X" horiz-adv-x="617" 
d="M616 633l-208 -311q58 -92 158 -253l44 -69h-160l-143 250q-74 -128 -142 -250h-163l213 325l-186 308h163l130 -215q26 41 81 134q35 57 49 81h164z" />
    <glyph glyph-name="Y" unicode="Y" horiz-adv-x="577" 
d="M2 633h152q67 -140 137 -278l133 278h152l-216 -383v-250h-140v250q-119 207 -218 383z" />
    <glyph glyph-name="Z" unicode="Z" horiz-adv-x="484" 
d="M466 633v-116q-83 -125 -273 -405h280v-112h-461v99q91 134 289 422h-280v112h445z" />
    <glyph glyph-name="bracketleft" unicode="[" horiz-adv-x="375" 
d="M317 -140h-239v785h239v-104h-109v-581h109v-100z" />
    <glyph glyph-name="backslash" unicode="\" horiz-adv-x="339" 
d="M-51 633h108l310 -663h-105z" />
    <glyph glyph-name="bracketright" unicode="]" horiz-adv-x="376" 
d="M59 645h240v-785h-240v100h107v581h-107v104z" />
    <glyph glyph-name="asciicircum" unicode="^" horiz-adv-x="454" 
d="M433 299h-124l-84 147l-69 -147h-134l154 310h103z" />
    <glyph glyph-name="underscore" unicode="_" horiz-adv-x="402" 
d="M411 -139h-419v109h419v-109z" />
    <glyph glyph-name="grave" unicode="`" horiz-adv-x="231" 
d="M12 655h133l75 -152h-95z" />
    <glyph glyph-name="a" unicode="a" horiz-adv-x="498" 
d="M437 0h-110l-10 42q-2 -1 -6 -5q-58 -49 -125 -49q-151 0 -151 148q0 73 62 113q66 43 194 43h13v1q0 40 -16 54t-61 14q-66 0 -120 -42q-20 36 -36 70q62 46 103.5 61.5t102.5 15.5q160 0 160 -202v-264zM299 210h-7q-53 0 -87 -19t-34 -49q0 -57 47 -57q32 0 55 19
t26 48v58z" />
    <glyph glyph-name="b" unicode="b" horiz-adv-x="567" 
d="M65 0v568l136 77v-243q21 34 61 52q29 13 63 13q101 0 157 -67q51 -62 51 -164q0 -132 -75 -198q-57 -50 -143 -50q-82 0 -129 57l-10 -45h-111zM201 171q3 -38 29 -63.5t63 -25.5q45 0 70.5 38t25.5 106q0 67 -24.5 105t-65.5 38q-98 0 -98 -107v-91z" />
    <glyph glyph-name="c" unicode="c" horiz-adv-x="479" 
d="M447 397l-42 -73q-51 47 -110 47q-53 0 -87 -41.5t-34 -107.5q0 -61 33 -99.5t85 -38.5q66 0 112 51l47 -74q-75 -73 -171 -73q-117 0 -186 74q-59 65 -59 163q0 110 76 180q67 61 163 61q110 0 173 -69z" />
    <glyph glyph-name="d" unicode="d" horiz-adv-x="562" 
d="M362 431v137l136 75v-643h-109l-20 48q-15 -26 -50.5 -43t-72.5 -17q-109 0 -165 71q-46 58 -46 150q0 134 77 204q57 53 136 53q68 0 114 -35zM362 294q-7 34 -30 55t-54 21q-49 0 -76.5 -38t-27.5 -104q0 -143 88 -143q35 0 66 29.5t34 66.5v113z" />
    <glyph glyph-name="e" unicode="e" horiz-adv-x="528" 
d="M494 183h-310q3 -41 35 -69.5t73 -28.5q65 0 138 41l34 -72q-32 -29 -84 -47.5t-100 -18.5q-117 0 -182 65q-63 62 -63 172q0 107 71 177q65 64 164 64q109 0 170 -71q54 -62 54 -162v-50zM176 283h182q-5 88 -90 88q-82 0 -92 -88z" />
    <glyph glyph-name="f" unicode="f" horiz-adv-x="382" 
d="M29 344v110h72v59q0 70 29 101t95 31q84 0 156 -57l-50 -71q-42 27 -69 27q-25 0 -25 -46v-44h125v-110h-125v-344h-136v344h-72z" />
    <glyph glyph-name="g" unicode="g" horiz-adv-x="569" 
d="M367 57q-45 -69 -126 -69q-100 0 -155 71q-46 59 -46 150q0 133 77 204q58 53 136 53q65 0 110 -32q31 -23 27 -29l10 49h104v-406q0 -113 -57 -176t-163 -63q-113 0 -190 74l33 68q61 -39 138 -39q102 0 102 144v1zM367 196v98q-3 31 -28 53.5t-56 22.5q-48 0 -75.5 -38
t-27.5 -104q0 -143 90 -143q40 0 68.5 31t28.5 75v5z" />
    <glyph glyph-name="h" unicode="h" horiz-adv-x="551" 
d="M65 570l136 75v-246q14 31 65 54q33 14 60 14q87 0 126.5 -47t39.5 -154v-266h-136v261q0 91 -77 91q-59 0 -78 -30v-322h-136v570z" />
    <glyph glyph-name="i" unicode="i" horiz-adv-x="287" 
d="M214 454v-454h-137v454h137zM142 487q-36 0 -59 24t-23 62q0 35 24.5 60.5t57.5 25.5q37 0 62 -25t25 -61q0 -38 -24 -62t-63 -24z" />
    <glyph glyph-name="j" unicode="j" horiz-adv-x="287" 
d="M211 454v-513q0 -71 -30 -101.5t-99 -30.5q-87 0 -159 56q8 11 24 37q14 21 21 32q43 -26 74 -26h2q31 1 31 47v499h136zM138 487q-36 0 -59 24t-23 62q0 35 24 60.5t58 25.5q36 0 61.5 -25t25.5 -61q0 -38 -24 -62t-63 -24z" />
    <glyph glyph-name="k" unicode="k" horiz-adv-x="513" 
d="M507 454l-217 -184q90 -138 178 -270h-152q-74 136 -115 210v-210h-136v574l136 71v-294q42 32 126 103h180z" />
    <glyph glyph-name="l" unicode="l" horiz-adv-x="265" 
d="M201 645v-645h-136v574q40 19 119 62l10 5z" />
    <glyph glyph-name="m" unicode="m" horiz-adv-x="893" 
d="M190 410q58 56 145 56q59 0 104.5 -25t63.5 -67q20 40 68 66t103 26q159 0 159 -194v-272h-137v234q0 65 -17.5 91.5t-59.5 26.5q-67 0 -106 -51l-1 -301h-136v250q0 57 -19.5 79.5t-68.5 22.5q-55 0 -87 -26v-326h-136v454h116z" />
    <glyph glyph-name="n" unicode="n" horiz-adv-x="552" 
d="M196 410q19 23 59.5 39.5t75.5 16.5q87 0 124.5 -46t37.5 -154v-266h-137v261q0 91 -81 91q-21 0 -43.5 -8t-30.5 -18v-326h-136v454h116z" />
    <glyph glyph-name="o" unicode="o" horiz-adv-x="524" 
d="M262 466q113 0 176 -79q52 -65 52 -161q0 -111 -79 -181q-64 -57 -149 -57q-98 0 -165 74q-62 67 -62 164q0 111 67 178q62 62 160 62zM174 226q0 -137 89 -137q88 0 88 137q0 144 -89 144q-88 0 -88 -144z" />
    <glyph glyph-name="p" unicode="p" horiz-adv-x="547" 
d="M199 21v-199h-134v632h102l13 -42q39 54 113 54q108 0 168 -72q52 -61 52 -158q0 -126 -77 -194q-60 -54 -148 -54q-24 0 -52 10.5t-37 22.5zM199 169q0 -87 75 -87q41 0 69 41.5t28 102.5q0 65 -24.5 104t-65.5 39q-82 0 -82 -101v-99z" />
    <glyph glyph-name="q" unicode="q" horiz-adv-x="550" 
d="M348 -176v223q0 -18 -38.5 -38.5t-71.5 -20.5q-105 0 -159 73q-44 59 -44 152q0 126 74 197q59 56 142 56q41 0 78 -19t42 -42l6 49h109v-630h-138zM348 288q0 36 -20 59t-52 23q-48 0 -76 -38t-28 -104q0 -143 97 -143q79 0 79 109v94z" />
    <glyph glyph-name="r" unicode="r" horiz-adv-x="428" 
d="M180 454l13 -37q9 19 37 34t56 15q93 0 138 -91q-17 -9 -57 -30q-38 -21 -57 -31q-33 39 -70 39q-29 0 -41 -31v-322h-134v454h115z" />
    <glyph glyph-name="s" unicode="s" horiz-adv-x="427" 
d="M35 52l50 76q49 -43 125 -43q25 0 41.5 13t16.5 33q0 40 -65 51q-73 12 -113 51t-40 98q0 58 47 96.5t118 38.5q97 0 170 -57l-50 -72q-49 33 -113 33q-42 0 -42 -37q0 -35 59 -49q82 -20 111 -45q43 -36 43 -110q0 -64 -46 -102.5t-124 -38.5q-112 0 -188 64z" />
    <glyph glyph-name="t" unicode="t" horiz-adv-x="407" 
d="M334 112l45 -69q-76 -60 -167 -60q-121 0 -121 134v228h-62v109h63v78q59 32 137 73v-151h128v-109h-129v-215q0 -28 6 -37t23 -9q28 0 77 28z" />
    <glyph glyph-name="u" unicode="u" horiz-adv-x="537" 
d="M360 52q-47 -64 -136 -64q-88 0 -123.5 43.5t-35.5 150.5v272h134v-235q0 -68 16 -93.5t59 -25.5q16 0 38 8.5t25 17.5v328h136v-454h-101z" />
    <glyph glyph-name="v" unicode="v" horiz-adv-x="470" 
d="M283 0h-103l-178 454h136l91 -287l98 287h142l-43 -106q-93 -229 -143 -348z" />
    <glyph glyph-name="w" unicode="w" horiz-adv-x="693" 
d="M277 0h-118l-157 454h136l78 -288l60 288h137q14 -73 45 -228l10 -44l3 -16l81 288h140l-22 -60l-14 -40q-85 -235 -129 -354h-119q-9 36 -26 111q-24 101 -40 163q-12 -47 -30 -128q-24 -100 -35 -146z" />
    <glyph glyph-name="x" unicode="x" horiz-adv-x="480" 
d="M477 454q-45 -65 -148 -213l-11 -16l162 -225h-149l-88 132l-96 -132h-148l35 44l13 15q85 105 134 163q-31 49 -91 139q-36 57 -60 93h149l69 -127q18 28 50 78q22 34 32 49h147z" />
    <glyph glyph-name="y" unicode="y" horiz-adv-x="479" 
d="M478 454l-189 -519q-46 -126 -133 -126q-69 0 -142 61q21 35 36 64q38 -25 67 -25q39 0 67 91h-26l-156 454h134q11 -34 35 -108l2 -8q40 -120 58 -181l112 297h135z" />
    <glyph glyph-name="z" unicode="z" horiz-adv-x="422" 
d="M411 0h-399v111l228 234h-214v109h379v-112l-232 -234h238v-108z" />
    <glyph glyph-name="braceleft" unicode="{" horiz-adv-x="396" 
d="M353 -38v-101h-48q-109 0 -142 41q-29 36 -29 134v61q0 56 -22.5 79.5t-76.5 23.5v98q99 0 99 110v61q0 105 34.5 140t136.5 35h48v-101h-27h-8q-35 0 -45 -14t-10 -60v-61q0 -127 -67 -159q37 -16 52 -50t15 -102v-61q0 -46 10 -60t45 -14h8h27z" />
    <glyph glyph-name="bar" unicode="|" horiz-adv-x="280" 
d="M203 662v-841h-126v841h126z" />
    <glyph glyph-name="braceright" unicode="}" horiz-adv-x="396" 
d="M44 544v101h48q108 0 142 -41q29 -36 29 -134v-61q0 -110 99 -110v-97q-54 0 -76.5 -24t-22.5 -80v-61q0 -105 -34.5 -140t-136.5 -35h-48v102h26h9q34 0 44.5 13.5t10.5 59.5v61q0 68 14.5 102t51.5 51q-66 31 -66 158v61q0 47 -10.5 60.5t-44.5 13.5h-9h-26z" />
    <glyph glyph-name="asciitilde" unicode="~" horiz-adv-x="527" 
d="M432 324l67 -49q-30 -108 -140 -108q-33 0 -114 34q-59 25 -78 25q-45 0 -70 -59l-68 49q28 107 128 107q28 0 108 -30q76 -29 102 -29q38 0 65 60z" />
    <glyph glyph-name="exclamdown" unicode="&#xa1;" horiz-adv-x="302" 
d="M75 272h145v-446h-145v446zM238 401q0 -37 -23.5 -59.5t-61.5 -22.5q-36 0 -59 21.5t-26 56.5v2v2q0 37 23.5 60.5t61.5 23.5t61.5 -23t23.5 -59v-2z" />
    <glyph glyph-name="cent" unicode="&#xa2;" horiz-adv-x="482" 
d="M288 -14v-38h-50v41q-100 13 -155 85q-48 62 -48 151q0 97 63 165q56 60 140 73v49h50v-47q75 -2 159 -68q-7 -15 -18 -44q-7 -17 -11 -29q-62 46 -129 46h-1v-285h1q76 0 123 52q9 -17 26 -50q8 -17 13 -26q-64 -68 -163 -75zM238 93v268q-64 -41 -64 -139
q0 -42 17.5 -78t46.5 -51z" />
    <glyph glyph-name="sterling" unicode="&#xa3;" horiz-adv-x="526" 
d="M382 278h-147v-166h217v-112h-421v112h63v166h-65v101h65v47q0 219 211 219q52 0 95 -18.5t111 -70.5l-53 -85q-91 57 -140 57q-83 0 -83 -96v-53h147v-101z" />
    <glyph glyph-name="currency" unicode="&#xa4;" horiz-adv-x="473" 
d="M412 85l-74 72q-40 -23 -94 -23q-55 0 -93 22l-72 -71q-3 -2 -6 -2q-11 0 -27.5 16.5t-16.5 28.5q0 2 2 4l69 67q-34 46 -34 103q0 60 33 102l-68 67q-2 2 -2 5q0 11 16 27.5t27 16.5q4 0 7 -2l71 -71q42 25 94 25q53 0 97 -25l71 70q2 3 6 3q11 0 27 -16.5t16 -27.5
q0 -3 -1 -5l-70 -69q30 -43 30 -100q0 -55 -32 -100l72 -70q1 -2 1 -5q0 -12 -15.5 -28.5t-26.5 -16.5q-5 0 -7 3zM245 212q37 0 60.5 25.5t23.5 67.5q-1 40 -24.5 64.5t-59.5 24.5q-38 0 -62.5 -25.5t-25.5 -64.5q0 -41 24 -66.5t64 -25.5z" />
    <glyph glyph-name="yen" unicode="&#xa5;" horiz-adv-x="577" 
d="M2 633h152q51 -109 133 -270h8l129 270h152l-152 -270h95v-107h-155l-4 -6v-50h159v-109h-159v-91h-140v91h-157v109h157v50q-3 2 -3 6h-154v107h92z" />
    <glyph glyph-name="brokenbar" unicode="&#xa6;" horiz-adv-x="266" 
d="M71 230h125v-409h-125v409zM196 662v-376h-125v376h125z" />
    <glyph glyph-name="section" unicode="&#xa7;" horiz-adv-x="468" 
d="M51 -79l52 74q48 -36 114 -36q31 0 50 16.5t19 42.5q0 35 -44 59l-8 4q-18 10 -61 25q-71 25 -97 50q-39 36 -39 100q0 39 22.5 74.5t55.5 49.5q-63 40 -63 118q0 64 52 105.5t133 41.5q89 0 162 -57q-6 -9 -18 -28q-21 -32 -30 -49q-46 34 -115 34q-52 0 -52 -47
q0 -58 116 -100q132 -47 132 -166q0 -72 -53 -102q4 -7 7 -9q34 -41 34 -106q0 -67 -57 -112q-53 -43 -131 -43q-113 0 -181 61zM301 177q6 13 6 42q0 44 -24 69t-82 39q-9 2 -12 3q-2 -2 -4 -5q-18 -34 -18 -54v-2v-1q0 -59 93 -78z" />
    <glyph glyph-name="dieresis" unicode="&#xa8;" horiz-adv-x="374" 
d="M21 574q0 30 21 50.5t51 20.5q26 0 47.5 -22t21.5 -49q0 -30 -20 -51t-49 -21q-32 0 -52 20t-20 52zM211 574q0 28 20.5 49.5t48.5 21.5q29 0 50.5 -21t21.5 -50q0 -32 -20 -52t-52 -20q-30 0 -49.5 20.5t-19.5 51.5z" />
    <glyph glyph-name="copyright" unicode="&#xa9;" horiz-adv-x="672" 
d="M468 459l-27 -53q-49 28 -89 28q-43 0 -68.5 -34.5t-25.5 -91.5q0 -52 27 -87.5t68 -35.5q52 0 94 38l27 -52q-49 -50 -123 -50q-94 0 -145 51q-48 48 -48 136t61 145q53 49 126 49q60 0 123 -43zM35 315q0 133 100 224q86 78 201 78q134 0 224 -100q78 -86 78 -202
q0 -133 -100 -223q-86 -78 -202 -78q-133 0 -223 100q-78 86 -78 201zM113 313q0 -101 73 -167q65 -58 153 -58q100 0 171 74q62 65 62 151q0 101 -76 170q-66 60 -152 60q-102 0 -172 -76q-59 -66 -59 -154z" />
    <glyph glyph-name="ordfeminine" unicode="&#xaa;" horiz-adv-x="259" 
d="M236 406h-58l-4 30q-26 -36 -81 -36q-30 0 -51.5 21.5t-21.5 51.5q0 38 34.5 62t87.5 24h27v2q0 27 -30 27q-41 0 -79 -18l-14 41q42 34 97 34q93 0 93 -101v-138zM168 518h-18q-65 0 -65 -42q0 -32 36 -32q47 0 47 46v28z" />
    <glyph glyph-name="guillemotleft" unicode="&#xab;" horiz-adv-x="675" 
d="M338 -5h-3q-90 0 -175 78q-73 67 -110 163q42 111 130 180q76 61 153 61h5v-128q-98 -35 -138 -113q39 -76 138 -113v-128zM635 -5h-3q-89 0 -175 78q-72 67 -110 163q43 111 130 180q76 61 153 61h5v-128q-97 -35 -137 -113q40 -77 137 -112v-129z" />
    <glyph glyph-name="logicalnot" unicode="&#xac;" horiz-adv-x="475" 
d="M309 0v139h-280v110h418v-249h-138z" />
    <glyph glyph-name="registered" unicode="&#xae;" horiz-adv-x="384" 
d="M195 470h-8v-60h-49v157h76q52 0 52 -47q0 -26 -27 -43l40 -67h-57zM187 527v-26h5q28 0 28 12q0 14 -25 14h-8zM194 322q-72 0 -120 54q-42 46 -42 108q0 72 54 120q46 42 108 42q71 0 118 -54q41 -46 41 -108q0 -72 -52 -120q-45 -42 -107 -42zM194 607
q-54 0 -86.5 -34t-32.5 -89t33 -89t86 -34q54 0 86.5 33.5t32.5 89.5q0 53 -34 88t-85 35z" />
    <glyph glyph-name="macron" unicode="&#xaf;" horiz-adv-x="257" 
d="M255 534h-252v99h252v-99z" />
    <glyph glyph-name="degree" unicode="&#xb0;" horiz-adv-x="253" 
d="M12 537q0 47 34.5 81t80.5 34t80.5 -34.5t34.5 -80.5t-34.5 -81t-80.5 -35t-80.5 34.5t-34.5 81.5zM79 539q0 -20 14.5 -34.5t34.5 -14.5q19 0 33.5 14.5t14.5 34.5q0 19 -14.5 33.5t-33.5 14.5q-20 0 -34.5 -14.5t-14.5 -33.5z" />
    <glyph glyph-name="plusminus" unicode="&#xb1;" horiz-adv-x="514" 
d="M196 218h-167v109h167v127h125v-127h165v-109h-165v-104h-125v104zM486 0h-457v108h457v-108z" />
    <glyph glyph-name="twosuperior" unicode="&#xb2;" horiz-adv-x="381" 
d="M49 316v80q168 68 168 131q0 34 -49 34q-33 0 -76 -28l-48 49q62 63 147 63q77 0 112 -49q22 -29 22 -63q0 -103 -112 -137h100v-80h-264z" />
    <glyph glyph-name="threesuperior" unicode="&#xb3;" horiz-adv-x="385" 
d="M128 521h43q46 0 46 20t-25 20q-36 0 -80 -25l-50 49q61 60 139 60q57 0 90.5 -24t33.5 -64q0 -56 -77 -66q37 -6 59.5 -27.5t22.5 -52.5q0 -97 -115 -97q-96 0 -153 59q38 35 54 51q43 -30 75 -30q31 0 31 26q0 22 -54 22h-40v79z" />
    <glyph glyph-name="acute" unicode="&#xb4;" horiz-adv-x="231" 
d="M220 655l-113 -152h-95l75 152h133z" />
    <glyph glyph-name="mu" unicode="&#xb5;" horiz-adv-x="600" 
d="M65 -181v635h132v-215q0 -81 19.5 -114t67.5 -33q51 0 78 17v345h134v-339q0 -25 15 -25h1q13 0 34 14l44 -63q-53 -54 -132 -54q-57 0 -80 45q-4 -2 -11 -8q-51 -36 -89 -36q-53 0 -81 33v-202h-132z" />
    <glyph glyph-name="paragraph" unicode="&#xb6;" horiz-adv-x="547" 
d="M471 0h-99v633h99v-633zM343 633v-633h-100v357h-43q-87 0 -127 32t-40 103q0 67 41 104t116 37h153z" />
    <glyph glyph-name="periodcentered" unicode="&#xb7;" horiz-adv-x="194" 
d="M26 374q0 30 21 51.5t51 21.5q29 0 50 -21.5t21 -51.5q0 -29 -21 -49.5t-50 -20.5q-30 0 -51 20.5t-21 49.5z" />
    <glyph glyph-name="cedilla" unicode="&#xb8;" horiz-adv-x="224" 
d="M61 10h96l-12 -33h7q27 -2 43.5 -19t16.5 -44q0 -38 -28.5 -59t-77.5 -21q-51 0 -94 16l14 53q39 -9 54 -9q38 0 38 25q0 28 -45 28q-19 0 -33 -2z" />
    <glyph glyph-name="onesuperior" unicode="&#xb9;" horiz-adv-x="335" 
d="M260 633v-315h-107v191l-72 -63l-62 72l120 115h121z" />
    <glyph glyph-name="ordmasculine" unicode="&#xba;" horiz-adv-x="284" 
d="M146 645q53 0 86 -34t33 -89q0 -54 -33 -88t-85 -34q-56 0 -91.5 34t-35.5 88q0 56 34.5 89.5t91.5 33.5zM177 522q0 59 -32 59q-37 0 -37 -59q0 -60 34 -60q35 0 35 60z" />
    <glyph glyph-name="guillemotright" unicode="&#xbb;" horiz-adv-x="675" 
d="M40 -5v129q97 35 137 112q-40 78 -137 113v128h5q89 0 173 -78q73 -67 110 -163q-43 -111 -131 -180q-76 -61 -154 -61h-3zM337 -5v129q98 35 138 112q-40 78 -138 113v128h5q89 0 174 -78q72 -67 109 -163q-43 -111 -130 -180q-77 -61 -155 -61h-3z" />
    <glyph glyph-name="onequarter" unicode="&#xbc;" horiz-adv-x="934" 
d="M718 318h110v-181h54v-84h-54v-53h-107v53h-150v94q19 23 60 70q57 65 87 101zM724 137v70q-11 -15 -21 -27q-18 -24 -30 -43h51zM769 633l-129 -221q-167 -286 -259 -442h-82l384 663h86zM303 633v-315h-107v191l-72 -63l-62 72l120 115h121z" />
    <glyph glyph-name="onehalf" unicode="&#xbd;" horiz-adv-x="890" 
d="M303 633v-315h-107v191l-72 -63l-62 72l120 115h121zM550 0v80q167 68 167 131q0 34 -49 34q-55 0 -72 -31l-54 47q66 68 149 68q78 0 113 -49q21 -29 21 -63q0 -45 -29.5 -81.5t-81.5 -55.5h100v-80h-264zM664 633l-386 -663h-82l384 663h84z" />
    <glyph glyph-name="threequarters" unicode="&#xbe;" horiz-adv-x="921" 
d="M125 521h45q46 0 46 20t-26 20q-35 0 -80 -25l-47 50q60 59 136 59q57 0 91 -23.5t34 -62.5q0 -66 -78 -68q83 -16 83 -80q0 -40 -37 -68.5t-87 -28.5q-94 0 -143 57l53 53q43 -30 75 -30q31 0 31 26q0 22 -54 22h-42v79zM699 318h105v-181h56v-84h-56v-53h-105v53h-152
v94q36 39 98 109q35 40 54 62zM702 137v70q-12 -16 -23 -30q-18 -21 -30 -40h53zM694 633q-68 -118 -193 -331q-127 -217 -193 -332h-82l384 663h84z" />
    <glyph glyph-name="questiondown" unicode="&#xbf;" horiz-adv-x="407" 
d="M168 297h132v-70v-9q0 -51 -12.5 -75t-57.5 -58q-67 -51 -67 -111q0 -26 21 -45.5t49 -19.5q20 0 48 12t44 29l51 -75q-69 -68 -173 -68q-85 0 -131 59q-35 45 -35 104q0 88 73 166q4 5 14 14q44 39 44 83v64zM309 394q0 -30 -21 -51.5t-51 -21.5q-29 0 -50 21.5
t-21 51.5q0 29 21 49.5t50 20.5q30 0 51 -20.5t21 -49.5z" />
    <glyph glyph-name="Agrave" unicode="&#xc0;" horiz-adv-x="602" 
d="M236 633h116l234 -633h-143q-10 31 -27 87q-8 24 -13 42h-219q-8 -25 -25 -77q-11 -31 -17 -52h-140zM295 447q-20 -56 -50 -143l-20 -59h138l-11 33l-6 16q-36 104 -51 153zM128 823h132l75 -152h-94z" />
    <glyph glyph-name="Aacute" unicode="&#xc1;" horiz-adv-x="602" 
d="M236 633h116l234 -633h-143q-10 31 -27 87q-8 24 -13 42h-219q-8 -25 -25 -77q-11 -31 -17 -52h-140zM295 447q-20 -56 -50 -143l-20 -59h138l-11 33l-6 16q-36 104 -51 153zM453 823l-113 -152h-95l75 152h133z" />
    <glyph glyph-name="Acircumflex" unicode="&#xc2;" horiz-adv-x="602" 
d="M236 633h116l234 -633h-143q-10 31 -27 87q-8 24 -13 42h-219q-8 -25 -25 -77q-11 -31 -17 -52h-140zM295 447q-20 -56 -50 -143l-20 -59h138l-11 33l-6 16q-36 104 -51 153zM252 823h86q14 -22 39 -58q43 -63 63 -94h-97l-46 75v-1l-52 -74h-96z" />
    <glyph glyph-name="Atilde" unicode="&#xc3;" horiz-adv-x="602" 
d="M236 633h116l234 -633h-143q-10 31 -27 87q-8 24 -13 42h-219q-8 -25 -25 -77q-11 -31 -17 -52h-140zM295 447q-20 -56 -50 -143l-20 -59h138l-11 33l-6 16q-36 104 -51 153zM196 665l-48 33q20 109 92 109q26 0 61 -26q30 -20 47 -20q20 0 47 54l49 -37
q-19 -106 -93 -106q-30 0 -62 19q-33 19 -49 19q-22 0 -44 -45z" />
    <glyph glyph-name="Adieresis" unicode="&#xc4;" horiz-adv-x="602" 
d="M236 633h116l234 -633h-143q-10 31 -27 87q-8 24 -13 42h-219q-8 -25 -25 -77q-11 -31 -17 -52h-140zM295 447q-20 -56 -50 -143l-20 -59h138l-11 33l-6 16q-36 104 -51 153zM130 742q0 30 21 50.5t51 20.5q26 0 47.5 -22t21.5 -49q0 -30 -20 -51t-49 -21q-32 0 -52 20
t-20 52zM320 742q0 28 20.5 49.5t48.5 21.5q29 0 50.5 -21t21.5 -50q0 -32 -20 -52t-52 -20q-30 0 -49.5 20.5t-19.5 51.5z" />
    <glyph glyph-name="Aring" unicode="&#xc5;" horiz-adv-x="602" 
d="M291 835q37 0 62.5 -26t25.5 -62q0 -37 -25.5 -63t-62.5 -26q-36 0 -62 26t-26 63q0 36 26 62t62 26zM291 781q-35 -2 -35 -34q0 -15 10.5 -25t24.5 -10q15 0 25 10t10 25q0 32 -35 34zM236 633h116l234 -633h-143q-10 31 -27 87q-8 24 -13 42h-219q-8 -25 -25 -77
q-11 -31 -17 -52h-140zM295 447q-20 -56 -50 -143l-20 -59h138l-11 33l-6 16q-36 104 -51 153z" />
    <glyph glyph-name="AE" unicode="&#xc6;" horiz-adv-x="866" 
d="M819 633v-112h-280v-139h233v-112h-233v-158h293v-112h-434v119h-205l-50 -119h-141l261 633h556zM240 235h158v287h-49q-27 -71 -73 -192l-15 -38z" />
    <glyph glyph-name="Ccedilla" unicode="&#xc7;" horiz-adv-x="581" 
d="M245 -55l17 50q-125 25 -185 137q-42 79 -42 178q0 154 78 244q78 91 220 91q94 0 192 -84l-54 -90q-73 54 -130 54q-74 0 -117 -58t-43 -157q0 -78 43 -136q47 -63 128 -63q52 0 127 47l54 -84q-75 -77 -178 -85l-4 -12h7q27 -2 43.5 -19t16.5 -44q0 -38 -28.5 -59
t-78.5 -21q-51 0 -93 16l14 53q39 -9 54 -9q38 0 38 25q0 28 -46 28q-18 0 -33 -2z" />
    <glyph glyph-name="Egrave" unicode="&#xc8;" horiz-adv-x="548" 
d="M69 633h421v-112h-280v-139h233v-112h-233v-158h293v-112h-434v633zM139 825h132l75 -151h-94z" />
    <glyph glyph-name="Eacute" unicode="&#xc9;" horiz-adv-x="548" 
d="M69 633h421v-112h-280v-139h233v-112h-233v-158h293v-112h-434v633zM432 823l-113 -152h-95l75 152h133z" />
    <glyph glyph-name="Ecircumflex" unicode="&#xca;" horiz-adv-x="548" 
d="M69 633h421v-112h-280v-139h233v-112h-233v-158h293v-112h-434v633zM231 823h85q15 -22 40 -58q43 -63 63 -94h-97l-46 75l-1 -1l-52 -74h-96z" />
    <glyph glyph-name="Edieresis" unicode="&#xcb;" horiz-adv-x="548" 
d="M69 633h421v-112h-280v-139h233v-112h-233v-158h293v-112h-434v633zM116 751q0 29 21 50t51 21q26 0 47 -22t21 -49q0 -30 -20 -51t-48 -21q-33 0 -52.5 19.5t-19.5 52.5zM305 751q0 28 21 49.5t49 21.5q29 0 50.5 -21t21.5 -50q0 -32 -20 -52t-52 -20q-30 0 -50 20.5
t-20 51.5z" />
    <glyph glyph-name="Igrave" unicode="&#xcc;" horiz-adv-x="328" 
d="M233 633v-633h-139v633h139zM7 824h133l75 -151h-95z" />
    <glyph glyph-name="Iacute" unicode="&#xcd;" horiz-adv-x="327" 
d="M215 633v-633h-138v633h138zM304 823l-113 -152h-95l75 152h133z" />
    <glyph glyph-name="Icircumflex" unicode="&#xce;" horiz-adv-x="333" 
d="M230 633v-633h-138v633h138zM117 834h85q15 -22 40 -58q43 -63 63 -94h-97l-46 75l-1 -1l-52 -74h-96z" />
    <glyph glyph-name="Idieresis" unicode="&#xcf;" horiz-adv-x="338" 
d="M231 633v-633h-138v633h138zM-6 742q0 30 21 50.5t51 20.5q26 0 47.5 -22t21.5 -49q0 -30 -20 -51t-49 -21q-32 0 -52 20t-20 52zM184 742q0 28 20.5 49.5t48.5 21.5q29 0 50.5 -21t21.5 -50q0 -32 -20 -52t-52 -20q-30 0 -49.5 20.5t-19.5 51.5z" />
    <glyph glyph-name="Eth" unicode="&#xd0;" horiz-adv-x="667" 
d="M103 273h-75v104h75v250q5 4 73.5 11t102.5 7q171 0 262 -100q79 -85 79 -222q0 -169 -98 -257q-87 -78 -237 -78q-35 0 -108 6t-74 10v269zM243 535v-158h145v-104h-145v-176q4 -2 42 -2q96 0 145 63q44 58 44 161q0 110 -63 170q-51 48 -129 48h-8q-7 1 -12 1
q-16 0 -19 -3z" />
    <glyph glyph-name="Ntilde" unicode="&#xd1;" horiz-adv-x="765" 
d="M77 0v633h116q47 -56 317 -424v424h141v-633h-119q-66 74 -274 353q-30 40 -43 57v-410h-138zM250 682l-48 34q20 108 93 108q25 0 61 -25q29 -21 47 -21q20 0 46 54l49 -36q-19 -107 -93 -107q-29 0 -62 19q-32 20 -48 20q-23 0 -45 -46z" />
    <glyph glyph-name="Ograve" unicode="&#xd2;" horiz-adv-x="662" 
d="M327 645q147 0 227 -117q62 -91 62 -220q0 -148 -82 -237q-77 -83 -207 -83q-150 0 -228 107q-62 85 -62 213q0 151 81 245q78 92 209 92zM327 106q142 0 142 202q0 107 -41 165q-38 52 -101 52q-69 0 -106.5 -57t-37.5 -160q0 -202 144 -202zM167 821h132l75 -152h-94z
" />
    <glyph glyph-name="Oacute" unicode="&#xd3;" horiz-adv-x="662" 
d="M327 645q147 0 227 -117q62 -91 62 -220q0 -148 -82 -237q-77 -83 -207 -83q-150 0 -228 107q-62 85 -62 213q0 151 81 245q78 92 209 92zM327 106q142 0 142 202q0 107 -41 165q-38 52 -101 52q-69 0 -106.5 -57t-37.5 -160q0 -202 144 -202zM476 823l-113 -151h-94
l75 151h132z" />
    <glyph glyph-name="Ocircumflex" unicode="&#xd4;" horiz-adv-x="662" 
d="M327 645q147 0 227 -117q62 -91 62 -220q0 -148 -82 -237q-77 -83 -207 -83q-150 0 -228 107q-62 85 -62 213q0 151 81 245q78 92 209 92zM327 106q142 0 142 202q0 107 -41 165q-38 52 -101 52q-69 0 -106.5 -57t-37.5 -160q0 -202 144 -202zM284 826h86q14 -22 39 -58
q43 -63 63 -94h-97l-46 75v-1l-52 -74h-96z" />
    <glyph glyph-name="Otilde" unicode="&#xd5;" horiz-adv-x="662" 
d="M327 645q147 0 227 -117q62 -91 62 -220q0 -148 -82 -237q-77 -83 -207 -83q-150 0 -228 107q-62 85 -62 213q0 151 81 245q78 92 209 92zM327 106q142 0 142 202q0 107 -41 165q-38 52 -101 52q-69 0 -106.5 -57t-37.5 -160q0 -202 144 -202zM221 665l-48 33
q19 109 92 109q25 0 61 -26q29 -20 47 -20q20 0 47 54l49 -37q-20 -106 -93 -106q-30 0 -63 19q-32 19 -48 19q-23 0 -44 -45z" />
    <glyph glyph-name="Odieresis" unicode="&#xd6;" horiz-adv-x="662" 
d="M327 645q147 0 227 -117q62 -91 62 -220q0 -148 -82 -237q-77 -83 -207 -83q-150 0 -228 107q-62 85 -62 213q0 151 81 245q78 92 209 92zM327 106q142 0 142 202q0 107 -41 165q-38 52 -101 52q-69 0 -106.5 -57t-37.5 -160q0 -202 144 -202zM165 750q0 29 21 50t51 21
q26 0 47.5 -22t21.5 -49q0 -31 -20 -51.5t-49 -20.5q-32 0 -52 19.5t-20 52.5zM355 750q0 28 20.5 49.5t48.5 21.5q29 0 50.5 -21.5t21.5 -49.5q0 -32 -20 -52t-52 -20q-30 0 -49.5 20t-19.5 52z" />
    <glyph glyph-name="multiply" unicode="&#xd7;" horiz-adv-x="521" 
d="M268 148l-162 -162l-84 82l164 164l-154 157l83 81l150 -155l151 159l82 -85l-154 -158l152 -167l-43 -41l-38 -37z" />
    <glyph glyph-name="Oslash" unicode="&#xd8;" horiz-adv-x="652" 
d="M571 645l-41 -87q86 -96 86 -250q0 -149 -83 -237q-80 -83 -219 -83q-11 0 -50 4q-4 0 -9 1l-14 -23h-106q6 11 16 33q7 18 12 28q-126 82 -126 277q0 151 81 245q78 92 209 92q65 0 123 -26l13 26h108zM224 151q109 231 170 354q-32 20 -67 20q-69 0 -106.5 -57
t-37.5 -160q0 -106 41 -157zM462 422l-156 -321q3 -2 10 -2h5h6q68 0 105 54.5t37 154.5q0 39 -7 114z" />
    <glyph glyph-name="Ugrave" unicode="&#xd9;" horiz-adv-x="660" 
d="M77 633h142v-384q0 -143 105 -143q108 0 108 143v384h139v-367q0 -278 -247 -278t-247 278v367zM162 822h132l75 -152h-94z" />
    <glyph glyph-name="Uacute" unicode="&#xda;" horiz-adv-x="660" 
d="M77 633h142v-384q0 -143 105 -143q108 0 108 143v384h139v-367q0 -278 -247 -278t-247 278v367zM484 822l-113 -152h-95l75 152h133z" />
    <glyph glyph-name="Ucircumflex" unicode="&#xdb;" horiz-adv-x="660" 
d="M77 633h142v-384q0 -143 105 -143q108 0 108 143v384h139v-367q0 -278 -247 -278t-247 278v367zM279 822h85q11 -16 35 -51l5 -8q42 -61 63 -93h-97l-46 75v-1l-53 -74h-96z" />
    <glyph glyph-name="Udieresis" unicode="&#xdc;" horiz-adv-x="660" 
d="M77 633h142v-384q0 -143 105 -143q108 0 108 143v384h139v-367q0 -278 -247 -278t-247 278v367zM159 749q0 30 21 50.5t51 20.5q26 0 47 -21.5t21 -49.5q0 -30 -20 -51t-48 -21q-33 0 -52.5 20t-19.5 52zM348 749q0 29 21 50t49 21q29 0 50.5 -21t21.5 -50
q0 -31 -20 -51.5t-52 -20.5q-30 0 -50 20.5t-20 51.5z" />
    <glyph glyph-name="Yacute" unicode="&#xdd;" horiz-adv-x="577" 
d="M2 633h152q67 -140 137 -278l133 278h152l-216 -383v-250h-140v250q-119 207 -218 383zM428 818l-113 -152h-94l75 152h132z" />
    <glyph glyph-name="Thorn" unicode="&#xde;" horiz-adv-x="552" 
d="M77 0v633h140v-95h42q243 0 243 -203q0 -108 -73 -163q-58 -45 -150 -45h-1l-60 1v-128h-141zM218 430v-194h60q78 0 78 99q0 95 -87 95h-51z" />
    <glyph glyph-name="germandbls" unicode="&#xdf;" horiz-adv-x="512" 
d="M224 8l26 81q12 -7 32 -7q19 0 26 19t7 74q0 86 -58 86h-35v121h32q53 0 53 91q0 72 -54 72t-54 -72v-473h-134v457q0 186 189 186q96 0 151 -57q47 -47 47 -114q0 -55 -34 -95.5t-83 -45.5q142 -20 142 -158q0 -89 -43.5 -137t-124.5 -48q-46 0 -85 20z" />
    <glyph glyph-name="agrave" unicode="&#xe0;" horiz-adv-x="507" 
d="M437 0h-110l-10 42q-67 -54 -131 -54q-151 0 -151 148q0 73 62 113q66 43 194 43h13v1q0 40 -16 54t-61 14q-66 0 -120 -42q-20 36 -36 70q62 46 103.5 61.5t102.5 15.5q160 0 160 -202v-264zM299 210h-7q-53 0 -87 -19t-34 -49q0 -57 47 -57q32 0 55 19t26 48v58z
M115 678h133l75 -152h-95z" />
    <glyph glyph-name="aacute" unicode="&#xe1;" horiz-adv-x="507" 
d="M437 0h-110l-10 42q-2 -1 -6 -5q-58 -49 -125 -49q-151 0 -151 148q0 73 62 113q66 43 194 43h13v1q0 40 -16 54t-61 14q-66 0 -120 -42q-20 36 -36 70q62 46 103.5 61.5t102.5 15.5q160 0 160 -202v-264zM299 210h-7q-53 0 -87 -19t-34 -49q0 -57 47 -57q32 0 55 19
t26 48v58zM413 676l-113 -151h-94l75 151h132z" />
    <glyph glyph-name="acircumflex" unicode="&#xe2;" horiz-adv-x="507" 
d="M437 0h-110l-10 42q-2 -1 -6 -5q-58 -49 -125 -49q-151 0 -151 148q0 73 62 113q66 43 194 43h13v1q0 40 -16 54t-61 14q-66 0 -120 -42q-20 36 -36 70q62 46 103.5 61.5t102.5 15.5q160 0 160 -202v-264zM299 210h-7q-53 0 -87 -19t-34 -49q0 -57 47 -57q32 0 55 19
t26 48v58zM222 655h85q11 -16 35 -51l5 -8q42 -61 63 -93h-97l-46 75v-1l-53 -74h-96z" />
    <glyph glyph-name="atilde" unicode="&#xe3;" horiz-adv-x="507" 
d="M437 0h-110l-10 42q-2 -1 -6 -5q-58 -49 -125 -49q-151 0 -151 148q0 73 62 113q66 43 194 43h13v1q0 40 -16 54t-61 14q-66 0 -120 -42q-20 36 -36 70q62 46 103.5 61.5t102.5 15.5q160 0 160 -202v-264zM299 210h-7q-53 0 -87 -19t-34 -49q0 -57 47 -57q32 0 55 19
t26 48v58zM165 517l-48 33q20 109 93 109q25 0 61 -26q29 -21 47 -21q20 0 46 55l49 -37q-19 -106 -93 -106q-29 0 -62 19q-32 19 -48 19q-23 0 -45 -45z" />
    <glyph glyph-name="adieresis" unicode="&#xe4;" horiz-adv-x="507" 
d="M437 0h-110l-10 42q-2 -1 -6 -5q-58 -49 -125 -49q-151 0 -151 148q0 73 62 113q66 43 194 43h13v1q0 40 -16 54t-61 14q-66 0 -120 -42q-20 36 -36 70q62 46 103.5 61.5t102.5 15.5q160 0 160 -202v-264zM299 210h-7q-53 0 -87 -19t-34 -49q0 -57 47 -57q32 0 55 19
t26 48v58zM98 574q0 30 21 50.5t51 20.5q26 0 47 -22t21 -49q0 -30 -20 -51t-48 -21q-33 0 -52.5 20t-19.5 52zM287 574q0 28 21 49.5t49 21.5q29 0 50.5 -21t21.5 -50q0 -32 -20 -52t-52 -20q-30 0 -50 20.5t-20 51.5z" />
    <glyph glyph-name="aring" unicode="&#xe5;" horiz-adv-x="507" 
d="M437 0h-110l-10 42q-2 -1 -6 -5q-58 -49 -125 -49q-151 0 -151 148q0 73 62 113q66 43 194 43h13v1q0 40 -16 54t-61 14q-66 0 -120 -42q-20 36 -36 70q62 46 103.5 61.5t102.5 15.5q160 0 160 -202v-264zM299 210h-7q-53 0 -87 -19t-34 -49q0 -57 47 -57q32 0 55 19
t26 48v58zM258 675q37 0 62.5 -26t25.5 -62q0 -37 -25.5 -62.5t-62.5 -25.5q-36 0 -62 25.5t-26 62.5q0 36 26 62t62 26zM258 621q-35 -2 -35 -34q0 -15 10.5 -25t24.5 -10q15 0 25 10t10 25q0 33 -35 34z" />
    <glyph glyph-name="ae" unicode="&#xe6;" horiz-adv-x="799" 
d="M759 183h-310l-1 6q1 -42 33.5 -73t75.5 -31q66 0 139 41l33 -72q-31 -29 -83 -47.5t-100 -18.5q-59 0 -109 25.5t-75 68.5l-1 -1q-59 -93 -175 -93q-151 0 -151 148q0 73 62 113q66 43 194 43h13v1q0 40 -16 54t-61 14q-66 0 -120 -42q-20 36 -36 70q62 46 103.5 61.5
t102.5 15.5q73 0 114 -45q62 45 145 45q108 0 169 -71q54 -62 54 -162v-50zM299 210h-7q-53 0 -87 -19t-34 -49q0 -57 47 -57q32 0 55 19t26 48v58zM441 283h183q-5 88 -90 88q-82 0 -93 -88z" />
    <glyph glyph-name="ccedilla" unicode="&#xe7;" horiz-adv-x="489" 
d="M206 -55l15 49q-91 18 -142 87q-44 60 -44 144q0 110 76 180q67 61 163 61q110 0 173 -69l-42 -73q-51 47 -110 47q-53 0 -87 -41.5t-34 -107.5q0 -61 33 -99.5t85 -38.5q66 0 112 51l47 -74q-62 -60 -135 -71l-5 -13h7q27 -2 43.5 -19t16.5 -44q0 -38 -28.5 -59
t-77.5 -21q-51 0 -94 16l14 53q39 -9 54 -9q38 0 38 25q0 28 -45 28q-19 0 -33 -2z" />
    <glyph glyph-name="egrave" unicode="&#xe8;" horiz-adv-x="545" 
d="M494 183h-310q3 -41 35 -69.5t73 -28.5q65 0 138 41l34 -72q-32 -29 -84 -47.5t-100 -18.5q-117 0 -182 65q-63 62 -63 172q0 107 71 177q65 64 164 64q109 0 170 -71q54 -62 54 -162v-50zM176 283h182q-5 88 -90 88q-82 0 -92 -88zM115 655h132l75 -152h-94z" />
    <glyph glyph-name="eacute" unicode="&#xe9;" horiz-adv-x="545" 
d="M494 183h-310q3 -41 35 -69.5t73 -28.5q65 0 138 41l34 -72q-32 -29 -84 -47.5t-100 -18.5q-117 0 -182 65q-63 62 -63 172q0 107 71 177q65 64 164 64q109 0 170 -71q54 -62 54 -162v-50zM176 283h182q-5 88 -90 88q-82 0 -92 -88zM419 655l-113 -152h-94l75 152h132z
" />
    <glyph glyph-name="ecircumflex" unicode="&#xea;" horiz-adv-x="545" 
d="M494 183h-310q3 -41 35 -69.5t73 -28.5q65 0 138 41l34 -72q-32 -29 -84 -47.5t-100 -18.5q-117 0 -182 65q-63 62 -63 172q0 107 71 177q65 64 164 64q109 0 170 -71q54 -62 54 -162v-50zM176 283h182q-5 88 -90 88q-82 0 -92 -88zM223 655h86q14 -22 39 -58
q43 -63 63 -94h-97l-46 75v-1l-52 -74h-96z" />
    <glyph glyph-name="edieresis" unicode="&#xeb;" horiz-adv-x="545" 
d="M494 183h-310q3 -41 35 -69.5t73 -28.5q65 0 138 41l34 -72q-32 -29 -84 -47.5t-100 -18.5q-117 0 -182 65q-63 62 -63 172q0 107 71 177q65 64 164 64q109 0 170 -71q54 -62 54 -162v-50zM176 283h182q-5 88 -90 88q-82 0 -92 -88zM97 574q0 30 21 50.5t51 20.5
q26 0 47.5 -22t21.5 -49q0 -30 -20 -51t-49 -21q-32 0 -52 20t-20 52zM287 574q0 28 20.5 49.5t48.5 21.5q29 0 50.5 -21t21.5 -50q0 -32 -20 -52t-52 -20q-30 0 -49.5 20.5t-19.5 51.5z" />
    <glyph glyph-name="igrave" unicode="&#xec;" horiz-adv-x="341" 
d="M242 454v-454h-133v454h133zM14 655h133l75 -152h-95z" />
    <glyph glyph-name="iacute" unicode="&#xed;" horiz-adv-x="333" 
d="M224 454v-454h-134v454h134zM315 655l-113 -152h-94l75 152h132z" />
    <glyph glyph-name="icircumflex" unicode="&#xee;" horiz-adv-x="342" 
d="M243 454v-454h-133v454h133zM131 655h85q15 -22 40 -58q43 -63 63 -94h-97l-46 75l-1 -1l-52 -74h-96z" />
    <glyph glyph-name="idieresis" unicode="&#xef;" horiz-adv-x="347" 
d="M227 454v-454h-134v454h134zM3 574q0 30 21 50.5t51 20.5q26 0 47.5 -22t21.5 -49q0 -30 -20 -51t-49 -21q-32 0 -52 20t-20 52zM193 574q0 28 20.5 49.5t48.5 21.5q29 0 50.5 -21t21.5 -50q0 -32 -20 -52t-52 -20q-30 0 -49.5 20.5t-19.5 51.5z" />
    <glyph glyph-name="eth" unicode="&#xf0;" horiz-adv-x="522" 
d="M223 558q-30 14 -104 37q14 12 42 32l7 5q11 8 17 13q66 -12 132 -35q61 27 102 48q10 -10 32 -34q23 -25 37 -38q-18 -7 -55 -25l-4 -1q-17 -8 -32 -15q35 -38 57 -103.5t22 -128.5q0 -151 -59 -237q-61 -88 -172 -88q-108 0 -166 84q-44 65 -44 152q0 102 73 155
q50 36 113 36q31 0 51 -8q37 -15 63 -40v2q0 101 -31 123q-21 -11 -63 -31q-31 -14 -47 -23q-12 11 -39 36q-21 20 -34 31q22 10 62 32q27 14 40 21zM336 275q-27 40 -85 40h-1q-75 0 -75 -110q0 -61 14 -86t48 -25q48 0 71 42t28 139z" />
    <glyph glyph-name="ntilde" unicode="&#xf1;" horiz-adv-x="564" 
d="M196 410q19 23 59.5 39.5t75.5 16.5q87 0 124.5 -46t37.5 -154v-266h-137v261q0 91 -81 91q-21 0 -43.5 -8t-30.5 -18v-326h-136v454h116q5 -26 10 -44h5zM180 513l-48 33q19 109 92 109q25 0 61 -26q29 -20 47 -20q20 0 47 54l49 -37q-20 -106 -93 -106q-30 0 -63 19
q-32 19 -48 19q-23 0 -44 -45z" />
    <glyph glyph-name="ograve" unicode="&#xf2;" horiz-adv-x="529" 
d="M262 466q113 0 176 -79q52 -65 52 -161q0 -111 -79 -181q-64 -57 -149 -57q-98 0 -165 74q-62 67 -62 164q0 111 67 178q62 62 160 62zM174 226q0 -137 89 -137q88 0 88 137q0 144 -89 144q-88 0 -88 -144zM113 655h132l75 -152h-94z" />
    <glyph glyph-name="oacute" unicode="&#xf3;" horiz-adv-x="529" 
d="M262 466q113 0 176 -79q52 -65 52 -161q0 -111 -79 -181q-64 -57 -149 -57q-98 0 -165 74q-62 67 -62 164q0 111 67 178q62 62 160 62zM174 226q0 -137 89 -137q88 0 88 137q0 144 -89 144q-88 0 -88 -144zM412 655l-113 -152h-95l75 152h133z" />
    <glyph glyph-name="ocircumflex" unicode="&#xf4;" horiz-adv-x="529" 
d="M262 466q113 0 176 -79q52 -65 52 -161q0 -111 -79 -181q-64 -57 -149 -57q-98 0 -165 74q-62 67 -62 164q0 111 67 178q62 62 160 62zM174 226q0 -137 89 -137q88 0 88 137q0 144 -89 144q-88 0 -88 -144zM221 655h85q11 -16 35 -51l5 -8q42 -61 63 -93h-97l-46 75v-1
l-53 -74h-96z" />
    <glyph glyph-name="otilde" unicode="&#xf5;" horiz-adv-x="529" 
d="M262 466q113 0 176 -79q52 -65 52 -161q0 -111 -79 -181q-64 -57 -149 -57q-98 0 -165 74q-62 67 -62 164q0 111 67 178q62 62 160 62zM174 226q0 -137 89 -137q88 0 88 137q0 144 -89 144q-88 0 -88 -144zM164 513l-48 33q20 109 93 109q25 0 61 -26q29 -20 47 -20
q20 0 46 54l49 -37q-19 -106 -93 -106q-29 0 -62 19q-32 19 -48 19q-23 0 -45 -45z" />
    <glyph glyph-name="odieresis" unicode="&#xf6;" horiz-adv-x="529" 
d="M262 466q113 0 176 -79q52 -65 52 -161q0 -111 -79 -181q-64 -57 -149 -57q-98 0 -165 74q-62 67 -62 164q0 111 67 178q62 62 160 62zM174 226q0 -137 89 -137q88 0 88 137q0 144 -89 144q-88 0 -88 -144zM103 574q0 30 21 50.5t51 20.5q26 0 47.5 -22t21.5 -49
q0 -30 -20 -51t-49 -21q-32 0 -52 20t-20 52zM293 574q0 28 20.5 49.5t48.5 21.5q29 0 50.5 -21t21.5 -50q0 -32 -20 -52t-52 -20q-30 0 -49.5 20.5t-19.5 51.5z" />
    <glyph glyph-name="divide" unicode="&#xf7;" horiz-adv-x="470" 
d="M442 185h-413v107h413v-107zM166 58q0 30 20.5 51.5t51.5 21.5q29 0 49.5 -21.5t20.5 -51.5q0 -29 -20.5 -49.5t-49.5 -20.5q-31 0 -51.5 20t-20.5 50zM167 411q0 30 21 51.5t51 21.5q29 0 50 -21.5t21 -51.5q0 -29 -21 -49.5t-50 -20.5q-30 0 -51 20.5t-21 49.5z" />
    <glyph glyph-name="oslash" unicode="&#xf8;" horiz-adv-x="514" 
d="M316 459l14 30h84l-27 -61q93 -68 93 -202q0 -112 -76 -181q-63 -57 -147 -57q-35 0 -61 10l-12 -28h-89l29 63q-89 70 -89 193q0 112 65 178q60 62 160 62q24 0 56 -7zM237 91q11 -2 21 -2q83 0 83 137q0 47 -7 82zM180 156l96 213q-10 1 -16 1q-86 0 -86 -144
q0 -40 6 -70z" />
    <glyph glyph-name="ugrave" unicode="&#xf9;" horiz-adv-x="549" 
d="M360 52q-48 -64 -136 -64t-123.5 43.5t-35.5 150.5v272h134v-235q0 -68 16 -93.5t59 -25.5q16 0 38 8.5t25 17.5v328h136v-454h-101zM102 655h132l75 -152h-94z" />
    <glyph glyph-name="uacute" unicode="&#xfa;" horiz-adv-x="549" 
d="M360 52q-48 -64 -136 -64t-123.5 43.5t-35.5 150.5v272h134v-235q0 -68 16 -93.5t59 -25.5q16 0 38 8.5t25 17.5v328h136v-454h-101zM430 655l-113 -152h-94l75 152h132z" />
    <glyph glyph-name="ucircumflex" unicode="&#xfb;" horiz-adv-x="549" 
d="M360 52q-48 -64 -136 -64t-123.5 43.5t-35.5 150.5v272h134v-235q0 -68 16 -93.5t59 -25.5q16 0 38 8.5t25 17.5v328h136v-454h-101zM230 655h86q11 -17 34 -51l6 -8q42 -61 62 -93h-97l-46 75v-1l-52 -74h-96z" />
    <glyph glyph-name="udieresis" unicode="&#xfc;" horiz-adv-x="549" 
d="M360 52q-48 -64 -136 -64t-123.5 43.5t-35.5 150.5v272h134v-235q0 -68 16 -93.5t59 -25.5q16 0 38 8.5t25 17.5v328h136v-454h-101zM109 574q0 30 20.5 50.5t51.5 20.5q26 0 47 -22t21 -49q0 -30 -20 -51t-48 -21q-33 0 -52.5 20t-19.5 52zM298 574q0 28 21 49.5
t49 21.5q29 0 50.5 -21t21.5 -50q0 -32 -20.5 -52t-51.5 -20q-30 0 -50 20.5t-20 51.5z" />
    <glyph glyph-name="yacute" unicode="&#xfd;" horiz-adv-x="479" 
d="M478 454l-189 -519q-46 -126 -133 -126q-69 0 -142 61q21 35 36 64q38 -25 67 -25q39 0 72 104l-5 -13h-26l-156 454h134q11 -34 35 -108l2 -8q40 -120 58 -181l112 297h135zM392 651l-113 -151h-94l75 151h132z" />
    <glyph glyph-name="thorn" unicode="&#xfe;" horiz-adv-x="546" 
d="M65 576q22 12 56 30q50 26 76 40v-214q9 14 36 24t57 10q106 0 168 -74q53 -62 53 -156q0 -123 -77 -192q-62 -56 -149 -56q-26 0 -56 9.5t-32 18.5v-194h-132v754zM197 299v-158q0 -22 23.5 -40.5t51.5 -18.5q42 0 70.5 41t28.5 103q0 66 -25 104.5t-67 38.5
q-26 0 -49 -20t-33 -50z" />
    <glyph glyph-name="ydieresis" unicode="&#xff;" horiz-adv-x="479" 
d="M478 454l-191 -519q-46 -126 -131 -126q-69 0 -142 61q6 11 18 31l18 33q38 -25 57 -25q3 0 9 -1v-1h7q18 0 62 106l-5 -13h-22l-83 242l-73 212h134q36 -117 92 -297q24 63 79 204l5 14l13 32l18 47h135zM70 574q0 30 20.5 50.5t51.5 20.5q28 0 49.5 -21.5t21.5 -49.5
q0 -31 -20.5 -51.5t-50.5 -20.5q-33 0 -52.5 19.5t-19.5 52.5zM260 574q0 28 21 49.5t50 21.5q28 0 50 -21.5t22 -49.5q0 -31 -20.5 -51.5t-51.5 -20.5t-51 20.5t-20 51.5z" />
    <glyph glyph-name="dotlessi" unicode="&#x131;" horiz-adv-x="321" 
d="M219 454v-454h-134v454h134z" />
    <glyph glyph-name="Lslash" unicode="&#x141;" horiz-adv-x="478" 
d="M449 110v-110h-376v233l-61 -27v104l61 27v296h143v-235l149 64v-108l-149 -62v-182h233z" />
    <glyph glyph-name="lslash" unicode="&#x142;" horiz-adv-x="289" 
d="M278 353l-72 -38v-315h-134v252l-60 -32v107l60 28v220l134 71v-224l72 39v-108z" />
    <glyph glyph-name="OE" unicode="&#x152;" horiz-adv-x="855" 
d="M400 633h402v-111h-278v-140h234v-111h-234v-161h291v-110h-426q-31 -12 -67 -12q-149 0 -226 111q-59 86 -59 214q0 148 83 243q80 90 209 90q35 0 71 -13zM386 124v395q-24 6 -55 6q-69 0 -108.5 -57t-39.5 -155q0 -207 146 -207q37 0 57 18z" />
    <glyph glyph-name="oe" unicode="&#x153;" horiz-adv-x="846" 
d="M808 183h-308q27 -98 114 -98h2q57 0 126 41l41 -74q-81 -64 -177 -64q-125 0 -191 52q-69 -52 -152 -52q-102 0 -168 74q-60 66 -60 164q0 110 67 178q62 62 159 62q86 0 161 -53q65 53 150 53q117 0 181 -71q55 -62 55 -162v-50zM351 228q0 66 -24 104t-66 38
q-41 0 -64 -38.5t-23 -105.5q0 -137 86 -137q91 0 91 137v2zM492 283h182q-2 41 -27 64.5t-67 23.5q-37 0 -61.5 -24t-26.5 -64z" />
    <glyph glyph-name="Scaron" unicode="&#x160;" horiz-adv-x="545" 
d="M45 66l63 87q55 -38 147 -38q98 0 98 78q0 26 -25 45t-88 41q-172 58 -172 192q0 81 60 129q56 45 151 45q107 0 202 -66q-18 -27 -60 -87q-84 35 -144 35q-76 0 -76 -57q0 -26 18 -40.5t83 -40.5q104 -40 150.5 -89t46.5 -116q0 -100 -74 -153q-60 -43 -151 -43
q-106 0 -229 78zM312 681h-83l-106 152h86l57 -91h6l60 91h85q-25 -38 -73 -106l-15 -22q-11 -15 -17 -24z" />
    <glyph glyph-name="scaron" unicode="&#x161;" horiz-adv-x="427" 
d="M35 52l50 76q49 -43 125 -43q25 0 41.5 13t16.5 33q0 40 -65 51q-73 12 -113 51t-40 98q0 58 47 96.5t118 38.5q97 0 170 -57l-50 -72q-49 33 -113 33q-42 0 -42 -37q0 -35 59 -49q82 -20 111 -45q43 -36 43 -110q0 -64 -46 -102.5t-124 -38.5q-112 0 -188 64zM257 503
h-83l-106 152h87l56 -90h6l58 90h87q-25 -38 -73 -106l-15 -22q-11 -15 -17 -24z" />
    <glyph glyph-name="Ydieresis" unicode="&#x178;" horiz-adv-x="577" 
d="M2 633h152q38 -80 116 -237l7 -13l14 -28q23 50 66 139l14 28q34 72 53 111h152q-43 -76 -126 -224l-18 -32q-47 -82 -72 -127v-250h-140v250q-76 131 -218 383zM119 742q0 30 21 50.5t51 20.5q28 0 49.5 -21.5t21.5 -49.5q0 -31 -20.5 -51.5t-50.5 -20.5q-32 0 -52 20
t-20 52zM309 742q0 28 21 49.5t50 21.5q28 0 50 -21.5t22 -49.5q0 -31 -20.5 -51.5t-51.5 -20.5t-51 20.5t-20 51.5z" />
    <glyph glyph-name="Zcaron" unicode="&#x17d;" horiz-adv-x="484" 
d="M466 633v-116q-83 -125 -273 -405h280v-112h-461v99q91 134 289 422h-280v112h445zM299 676h-83l-106 152h87l56 -90h5l59 90h87q-26 -38 -74 -106l-15 -22q-11 -15 -16 -24z" />
    <glyph glyph-name="zcaron" unicode="&#x17e;" horiz-adv-x="422" 
d="M411 0h-399v111l228 234h-214v109h379v-112l-232 -234h238v-108zM260 503h-83l-106 152h87l56 -90h6l58 90h87q-25 -38 -73 -106l-15 -22q-11 -15 -17 -24z" />
    <glyph glyph-name="florin" unicode="&#x192;" horiz-adv-x="463" 
d="M178 344h-72v110h72v60q0 69 29.5 100.5t95.5 31.5q85 0 157 -57l-50 -71q-43 27 -69 27q-25 0 -25 -46v-45h137v-110h-137v-359q0 -65 -31 -94q-32 -31 -103 -31q-90 0 -164 56l45 69q43 -25 84 -25h1q30 1 30 39v345z" />
    <glyph glyph-name="circumflex" unicode="&#x2c6;" horiz-adv-x="272" 
d="M95 655h85q15 -22 40 -58q43 -63 63 -94h-97l-46 75l-1 -1l-52 -74h-96z" />
    <glyph glyph-name="caron" unicode="&#x2c7;" horiz-adv-x="275" 
d="M179 503h-83l-106 152h87l56 -90h6l58 90h87q-24 -36 -73 -106q-15 -21 -32 -46z" />
    <glyph glyph-name="breve" unicode="&#x2d8;" horiz-adv-x="271" 
d="M7 645h93v-3q0 -54 36 -54q37 0 37 57h89v-9q0 -58 -34 -90.5t-95 -32.5q-126 0 -126 132z" />
    <glyph glyph-name="dotaccent" unicode="&#x2d9;" horiz-adv-x="145" 
d="M-8 564q0 33 24 57t57 24q31 0 56 -25t25 -56q0 -33 -24 -57.5t-57 -24.5q-34 0 -57.5 23.5t-23.5 58.5z" />
    <glyph glyph-name="ring" unicode="&#x2da;" horiz-adv-x="139" 
d="M7 589q0 26 18.5 44.5t44.5 18.5t44.5 -18.5t18.5 -44.5t-18.5 -44.5t-44.5 -18.5t-44.5 18.5t-18.5 44.5zM70 611q-20 0 -20 -22q0 -20 20 -20q21 0 21 20q0 22 -21 22z" />
    <glyph glyph-name="ogonek" unicode="&#x2db;" horiz-adv-x="215" 
d="M55 4h71q2 1 -5 -9q-29 -42 -29 -62q0 -35 41 -35q29 0 56 8l18 -59q-53 -14 -89 -14q-52 0 -82.5 22.5t-30.5 60.5q0 50 50 88z" />
    <glyph glyph-name="tilde" unicode="&#x2dc;" horiz-adv-x="291" 
d="M46 513l-48 33q20 109 92 109q26 0 62 -26q29 -20 47 -20q20 0 46 54l49 -37q-19 -106 -93 -106q-29 0 -62 19t-49 19q-22 0 -44 -45z" />
    <glyph glyph-name="hungarumlaut" unicode="&#x2dd;" horiz-adv-x="410" 
d="M220 682q-51 -81 -109 -165h-99q19 40 56 123l19 42h133zM398 682q-23 -29 -45 -58q-60 -76 -86 -107h-100q21 37 73 124q11 18 25 41h133z" />
    <glyph glyph-name="pi" unicode="&#x3c0;" horiz-adv-x="558" 
d="M339 0v350h-124v-350h-134v351h-52v103h501v-104h-58v-350h-133z" />
    <glyph glyph-name="uni060C" unicode="&#x60c;" horiz-adv-x="324" 
d="M180 194q39 0 64 -26t25 -67q0 -46 -29.5 -76t-74.5 -30q-46 0 -73.5 31t-27.5 82v205l78 12v-131h38z" />
    <glyph glyph-name="uni061B" unicode="&#x61b;" horiz-adv-x="329" 
d="M188 468q39 0 64 -26t25 -67q0 -46 -29.5 -76t-74.5 -30q-46 0 -73.5 31t-27.5 82v205l78 12v-131h38zM92 79v4q3 35 26 56.5t59 21.5q38 0 61.5 -23t23.5 -59v-2q0 -36 -23.5 -59t-61.5 -23t-61.5 23t-23.5 61z" />
    <glyph glyph-name="uni061F" unicode="&#x61f;" horiz-adv-x="465" 
d="M217 173q5 10 5 23q0 26 -15 47.5t-65 69.5q-11 11 -24 23q-76 73 -76 164q0 77 57 126q51 44 132 44q82 0 154 -59v-129q-68 63 -136 63q-67 0 -67 -60q0 -34 33 -67q7 -7 23 -22l2 -2q62 -59 85 -100.5t23 -94.5q0 -12 -3 -26h-128zM372 58v-2q0 -36 -23.5 -59
t-61.5 -23t-61.5 23t-23.5 61v4q3 35 26 56.5t59 21.5q38 0 61.5 -23t23.5 -59z" />
    <glyph glyph-name="uni0621" unicode="&#x621;" horiz-adv-x="551" 
d="M35 -69v140q34 22 82 36q-27 52 -27 116q0 116 71 176q52 44 126 46h6q91 0 154 -69v-133q-78 69 -140 69h-7q-66 -7 -66 -85q0 -57 37 -98l42 3q109 9 188 63v-132q-85 -63 -232 -63q-137 0 -234 -69z" />
    <glyph glyph-name="uni0622" unicode="&#x622;" horiz-adv-x="325" 
d="M327 758q-49 -60 -99 -60q-22 0 -63 22q-33 18 -46 18q-16 0 -49 -36l-50 44q51 60 99 60q23 0 66 -23q31 -16 43 -16q16 0 52 36zM90 0v568l145 77v-645h-145z" />
    <glyph glyph-name="uni0623" unicode="&#x623;" horiz-adv-x="325" 
d="M45 661l35 66h32q-11 21 -11 43q0 36 25 59q24 22 58 22q33 0 61 -24v-64q-26 23 -51 23q-16 0 -25 -9q-8 -8 -8 -19q0 -15 14 -31h102l-35 -66h-197zM90 0v528l145 77v-605h-145z" />
    <glyph glyph-name="uni0624" unicode="&#x624;" horiz-adv-x="532" 
d="M361 629l-35 -65h-196l35 65h31q-11 21 -11 43q0 33 24.5 57t58.5 24t61 -24v-64q-26 23 -50 23q-33 0 -33 -27q0 -15 13 -32h102zM305 30q-22 -3 -48 -3q-94 0 -150 70q-47 57 -47 138q0 111 61 176q55 57 144 57q91 0 143 -58q44 -51 44 -131v-212q0 -131 -72 -200
q-56 -53 -142 -56h-8q-68 0 -131 37v127q59 -34 114 -34q9 0 16 1q66 7 76 88zM307 163v120q0 49 -42 49q-62 0 -62 -92q0 -90 63 -90q28 0 41 13z" />
    <glyph glyph-name="uni0625" unicode="&#x625;" horiz-adv-x="325" 
d="M90 0v568l145 77v-645h-145zM50 -285l35 65h31q-11 21 -11 43q0 33 24.5 57t58.5 24t61 -24v-64q-26 23 -50 23q-33 0 -33 -27q0 -15 13 -32h102l-35 -65h-196z" />
    <glyph glyph-name="uni0626" unicode="&#x626;" horiz-adv-x="769" 
d="M53 340l35 66h32q-11 20 -11 42q0 36 25 60q24 22 58 22t61 -24v-65q-27 23 -52 23q-16 0 -24 -8t-8 -20q0 -15 13 -30h103l-35 -66h-197zM654 265q-75 64 -138 64q-27 0 -44.5 -14.5t-17.5 -37.5q0 -33 22 -51.5t86 -39.5q76 -26 105 -52q42 -37 42 -102
q0 -109 -99 -169q-85 -53 -220 -53q-171 0 -256 97q-64 72 -64 177q0 76 35 135l138 29q-37 -66 -37 -140q0 -76 47.5 -117t136.5 -41q175 0 175 83q0 18 -16 30t-65 29q-84 29 -117 60q-50 47 -50 126q0 91 63 142q47 39 109 39q107 0 165 -72v-122z" />
    <glyph glyph-name="uni0627" unicode="&#x627;" horiz-adv-x="325" 
d="M90 0v568l145 77v-645h-145z" />
    <glyph glyph-name="uni0628" unicode="&#x628;" horiz-adv-x="907" 
d="M271 0q-87 0 -137 59q-44 51 -44 132v92l145 77v-161q0 -33 12.5 -46t44.5 -13h323q32 0 44.5 13t12.5 46v174l145 77v-259q0 -93 -58 -145q-51 -46 -131 -46h-357zM445 -235q-34 0 -54.5 20.5t-20.5 54.5t20.5 54t54.5 20q33 0 53 -20t20 -54t-20 -54.5t-53 -20.5z" />
    <glyph glyph-name="uni0629" unicode="&#x629;" horiz-adv-x="550" 
d="M195 565q-34 0 -54.5 21t-20.5 55q0 33 21 53t54 20t53 -20t20 -53q0 -35 -20 -55.5t-53 -20.5zM362 565q-34 0 -54.5 21t-20.5 55q0 33 20.5 53t54.5 20q33 0 53 -20t20 -53q0 -35 -20 -55.5t-53 -20.5zM278 0q-98 0 -153 66q-47 57 -47 144q0 97 61 167q54 62 144 91
q104 -34 158 -108q47 -66 47 -150q0 -101 -61 -159q-54 -51 -139 -51h-10zM278 140h11q57 0 57 69q0 81 -63 122q-61 -41 -61 -120q0 -71 56 -71z" />
    <glyph glyph-name="uni062A" unicode="&#x62a;" horiz-adv-x="907" 
d="M365 465q-34 0 -54.5 21t-20.5 55q0 33 20.5 53t54.5 20q33 0 53 -20t20 -53q0 -35 -20 -55.5t-53 -20.5zM532 465q-34 0 -54.5 21t-20.5 55q0 33 20.5 53t54.5 20q33 0 53 -20t20 -53q0 -35 -20 -55.5t-53 -20.5zM271 0q-87 0 -137 59q-44 51 -44 132v92l145 77v-161
q0 -33 12.5 -46t44.5 -13h323q32 0 44.5 13t12.5 46v174l145 77v-259q0 -93 -58 -145q-51 -46 -131 -46h-357z" />
    <glyph glyph-name="uni062B" unicode="&#x62b;" horiz-adv-x="907" 
d="M472 627q-31 0 -49.5 19t-18.5 50q0 30 18.5 48.5t49.5 18.5t49.5 -18.5t18.5 -48.5q0 -69 -68 -69zM390 465q-34 0 -54.5 21t-20.5 55q0 33 20.5 53t54.5 20q33 0 53 -20t20 -53q0 -35 -20 -55.5t-53 -20.5zM557 465q-34 0 -54.5 21t-20.5 55q0 33 20.5 53t54.5 20
q33 0 53 -20t20 -53q0 -35 -20 -55.5t-53 -20.5zM271 0q-87 0 -137 59q-44 51 -44 132v92l145 77v-161q0 -33 12.5 -46t44.5 -13h323q32 0 44.5 13t12.5 46v174l145 77v-259q0 -93 -58 -145q-51 -46 -131 -46h-357z" />
    <glyph glyph-name="uni062C" unicode="&#x62c;" horiz-adv-x="660" 
d="M539 -318q-90 -57 -202 -57q-122 0 -196 77q-71 73 -71 199q0 132 75 202q55 53 194 86q87 22 117 40q-63 105 -151 105q-76 0 -177 -87v126q85 95 193 95h2q80 0 155 -58t132 -163v-53q-28 -53 -75 -81.5t-147 -52.5q-103 -26 -136 -54q-42 -39 -42 -106
q0 -135 141 -135q95 0 188 55v-138zM355 -157q-28 0 -45.5 17.5t-17.5 46.5q0 28 17.5 45t45.5 17t45 -17t17 -45q0 -29 -17 -46.5t-45 -17.5z" />
    <glyph glyph-name="uni062D" unicode="&#x62d;" horiz-adv-x="660" 
d="M539 -318q-90 -57 -202 -57q-122 0 -196 77q-71 73 -71 199q0 132 75 202q54 52 194 86q86 22 117 40q-63 105 -151 105q-76 0 -177 -87v126q85 95 193 95h2q80 0 155 -58t132 -163v-53q-28 -53 -74.5 -81.5t-147.5 -52.5q-102 -25 -136 -54q-42 -39 -42 -106
q0 -135 141 -135q95 0 188 55v-138z" />
    <glyph glyph-name="uni062E" unicode="&#x62e;" horiz-adv-x="660" 
d="M320 540q-34 0 -54.5 20.5t-20.5 54.5t20.5 54t54.5 20q33 0 53 -20t20 -54t-20 -54.5t-53 -20.5zM539 -318q-90 -57 -202 -57q-122 0 -196 77q-71 73 -71 199q0 132 75 202q54 52 194 86q86 22 117 40q-63 105 -151 105q-76 0 -177 -87v126q85 95 193 95h2q80 0 155 -58
t132 -163v-53q-28 -53 -74.5 -81.5t-147.5 -52.5q-102 -25 -136 -54q-42 -39 -42 -106q0 -135 141 -135q95 0 188 55v-138z" />
    <glyph glyph-name="uni062F" unicode="&#x62f;" horiz-adv-x="487" 
d="M10 0l73 140h149q40 0 40 45q0 99 -98 154l71 122q173 -100 173 -278q0 -183 -159 -183h-249z" />
    <glyph glyph-name="uni0630" unicode="&#x630;" horiz-adv-x="487" 
d="M247 540q-34 0 -54.5 20.5t-20.5 54.5t20.5 54t54.5 20q33 0 53 -20t20 -54t-20 -54.5t-53 -20.5zM10 0l73 140h149q40 0 40 45q0 99 -98 154l71 122q173 -100 173 -278q0 -183 -159 -183h-249z" />
    <glyph glyph-name="uni0631" unicode="&#x631;" horiz-adv-x="377" 
d="M287 67q0 -86 -35 -149.5t-99 -92.5q-42 -20 -91 -20q-66 0 -129 35v126q52 -29 101 -29q25 0 46 8q61 21 61 112v315l146 78v-383z" />
    <glyph glyph-name="uni0632" unicode="&#x632;" horiz-adv-x="377" 
d="M214 540q-34 0 -54.5 20.5t-20.5 54.5t20.5 54t54.5 20q33 0 53 -20t20 -54t-20 -54.5t-53 -20.5zM287 67q0 -86 -35 -149.5t-99 -92.5q-42 -20 -91 -20q-66 0 -129 35v126q52 -29 101 -29q25 0 46 8q61 21 61 112v315l146 78v-383z" />
    <glyph glyph-name="uni0633" unicode="&#x633;" horiz-adv-x="1385" 
d="M1150 373l145 77v-258q0 -92 -56 -144q-48 -46 -127 -48h-112q-68 0 -116 34q-45 -32 -110 -34h-111q-24 0 -51 5q-21 -94 -100 -147q-71 -48 -170 -48q-138 0 -213 97q-59 75 -59 177q0 76 35 135l138 29q-37 -66 -37 -140q0 -71 37.5 -114.5t98.5 -43.5q132 0 132 119
v257l145 77v-205q0 -33 12.5 -45.5t44.5 -12.5h78q32 0 44.5 12.5t12.5 45.5v152l146 76v-228q0 -33 12.5 -45.5t44.5 -12.5h79q32 0 44.5 12.5t12.5 45.5v175z" />
    <glyph glyph-name="uni0634" unicode="&#x634;" horiz-adv-x="1385" 
d="M887 695q-31 0 -49 18.5t-18 49.5q0 67 67 67t67 -67q0 -31 -18 -49.5t-49 -18.5zM805 533q-34 0 -54.5 21t-20.5 55q0 33 20.5 53.5t54.5 20.5q33 0 53 -20t20 -54q0 -35 -20 -55.5t-53 -20.5zM897 609q0 33 20.5 53.5t54.5 20.5q33 0 53 -20t20 -54q0 -35 -20 -55.5
t-53 -20.5q-34 0 -54.5 21t-20.5 55zM1150 373l145 77v-258q0 -92 -56 -144q-48 -46 -127 -48h-112q-68 0 -116 34q-45 -32 -110 -34h-111q-24 0 -51 5q-21 -94 -100 -147q-71 -48 -170 -48q-138 0 -213 97q-59 75 -59 177q0 76 35 135l138 29q-37 -66 -37 -140
q0 -71 37.5 -114.5t98.5 -43.5q132 0 132 119v257l145 77v-205q0 -33 12.5 -45.5t44.5 -12.5h78q32 0 44.5 12.5t12.5 45.5v152l146 76v-228q0 -33 12.5 -45.5t44.5 -12.5h79q32 0 44.5 12.5t12.5 45.5v175z" />
    <glyph glyph-name="uni0635" unicode="&#x635;" horiz-adv-x="1354" 
d="M664 140q49 142 142 231q101 97 231 97q121 0 193 -84q61 -70 61 -173v-20q0 -93 -58 -145q-50 -46 -131 -46h-439q-24 0 -51 5q-21 -94 -100 -147q-71 -48 -170 -48q-138 0 -213 97q-59 75 -59 177q0 76 35 135l138 29q-37 -66 -37 -140q0 -71 37.5 -114.5t98.5 -43.5
q132 0 132 119v257l145 77v-205q0 -54 45 -58zM1146 199v12q0 54 -30 87.5t-78 33.5q-69 0 -130.5 -51.5t-98.5 -140.5h288q30 0 39.5 11t9.5 48z" />
    <glyph glyph-name="uni0636" unicode="&#x636;" horiz-adv-x="1354" 
d="M1040 540q-34 0 -54.5 20.5t-20.5 54.5t20.5 54t54.5 20q33 0 53 -20t20 -54t-20 -54.5t-53 -20.5zM664 140q49 142 142 231q101 97 231 97q121 0 193 -84q61 -70 61 -173v-20q0 -93 -58 -145q-50 -46 -131 -46h-439q-24 0 -51 5q-21 -94 -100 -147q-71 -48 -170 -48
q-138 0 -213 97q-59 75 -59 177q0 76 35 135l138 29q-37 -66 -37 -140q0 -71 37.5 -114.5t98.5 -43.5q132 0 132 119v257l145 77v-205q0 -54 45 -58zM1146 199v12q0 54 -30 87.5t-78 33.5q-69 0 -130.5 -51.5t-98.5 -140.5h288q30 0 39.5 11t9.5 48z" />
    <glyph glyph-name="uni0637" unicode="&#x637;" horiz-adv-x="921" 
d="M377 374q101 94 227 94q120 0 193 -84q61 -71 61 -173v-21q0 -95 -57 -146q-48 -44 -127 -44h-654l75 140h137v428l145 77v-271zM713 211q0 54 -30 87.5t-78 33.5q-68 0 -129 -51.5t-99 -140.5h292q28 0 36 10t8 47v14z" />
    <glyph glyph-name="uni0638" unicode="&#x638;" horiz-adv-x="921" 
d="M604 540q-34 0 -54.5 20.5t-20.5 54.5t20.5 54t54.5 20q33 0 53 -20t20 -54t-20 -54.5t-53 -20.5zM377 374q101 94 227 94q120 0 193 -84q61 -71 61 -173v-21q0 -95 -57 -146q-48 -44 -127 -44h-654l75 140h137v428l145 77v-271zM713 211q0 54 -30 87.5t-78 33.5
q-68 0 -129 -51.5t-99 -140.5h292q28 0 36 10t8 47v14z" />
    <glyph glyph-name="uni0639" unicode="&#x639;" horiz-adv-x="590" 
d="M540 -318q-90 -57 -196 -57q-124 0 -202 76q-72 71 -72 183q0 116 84 188q-69 66 -69 175q0 106 76 170q61 51 142 51q109 0 177 -95v-126q-76 85 -160 85h-2h-2q-85 -2 -85 -90q0 -48 31 -75t86 -27h180v-140h-178q-66 0 -102.5 -30.5t-36.5 -85.5t37.5 -87t103.5 -32h3
q94 2 185 55v-138z" />
    <glyph glyph-name="uni063A" unicode="&#x63a;" horiz-adv-x="590" 
d="M325 540q-34 0 -54.5 20.5t-20.5 54.5t20.5 54t54.5 20q33 0 53 -20t20 -54t-20 -54.5t-53 -20.5zM540 -318q-90 -57 -196 -57q-124 0 -202 76q-72 71 -72 183q0 116 84 188q-69 66 -69 175q0 106 76 170q61 51 142 51q109 0 177 -95v-126q-76 85 -160 85h-2h-2
q-85 -2 -85 -90q0 -48 31 -75t86 -27h180v-140h-178q-66 0 -102.5 -30.5t-36.5 -85.5t37.5 -87t103.5 -32h3q94 2 185 55v-138z" />
    <glyph glyph-name="uni0640" unicode="&#x640;" horiz-adv-x="116" 
d="M-27 0v140h169v-140h-169z" />
    <glyph glyph-name="uni0641" unicode="&#x641;" horiz-adv-x="995" 
d="M740 524q-34 0 -54.5 20.5t-20.5 54.5t20.5 54t54.5 20q33 0 53 -20t20 -54t-20 -54.5t-53 -20.5zM296 0q-98 0 -156 67q-50 59 -50 149v90l145 78v-160q0 -47 16.5 -65.5t58.5 -18.5h235q-22 42 -22 94q0 112 61 176q55 58 144 58q91 0 142 -58q45 -51 45 -131v-88
q0 -87 -52 -140q-50 -51 -137 -51h-430zM770 283q0 49 -42 49q-62 0 -62 -93q0 -99 61 -99q43 0 43 49v94z" />
    <glyph glyph-name="uni0642" unicode="&#x642;" horiz-adv-x="794" 
d="M445 523q-34 0 -54.5 21t-20.5 55q0 33 20.5 53t54.5 20q33 0 53 -20t20 -53q0 -35 -20 -55.5t-53 -20.5zM611 523q-33 0 -53.5 21t-20.5 55q0 33 20.5 53t53.5 20t53.5 -20t20.5 -53q0 -35 -20 -55.5t-54 -20.5zM714 69q0 -125 -92 -194q-85 -65 -232 -65
q-171 0 -256 97q-64 72 -64 177q0 76 35 135l138 29q-37 -66 -37 -140q0 -76 47.5 -117t136.5 -41q149 0 172 84q-17 -7 -43 -7q-94 0 -150 70q-47 58 -47 138q0 111 61 176q55 57 144 57q91 0 142 -58q45 -51 45 -131v-210zM569 283q0 49 -42 49q-62 0 -62 -92
q0 -90 62 -90q31 0 42 14v119z" />
    <glyph glyph-name="uni0643" unicode="&#x643;" horiz-adv-x="907" 
d="M672 568l145 77v-454q0 -93 -58 -145q-51 -46 -131 -46h-357q-87 0 -137 59q-44 51 -44 132v92l145 77v-161q0 -33 12.5 -46t44.5 -13h323q32 0 44.5 13t12.5 46v369zM491 516q74 -14 74 -95q0 -43 -24.5 -68.5t-65.5 -25.5h-156l35 66h114q32 0 32 32q0 39 -50 39
q-32 0 -58 -22v60l88 97h84z" />
    <glyph glyph-name="uni0644" unicode="&#x644;" horiz-adv-x="741" 
d="M651 92q0 -132 -91 -212q-81 -71 -202 -71q-147 0 -227 95q-61 74 -61 174q0 76 34 135l143 32q-38 -64 -38 -146q0 -70 39.5 -110t109.5 -40q68 0 107.5 38.5t39.5 104.5v476l146 77v-553z" />
    <glyph glyph-name="uni0645" unicode="&#x645;" horiz-adv-x="640" 
d="M182 139q-14 44 -14 95q0 112 61 176q55 58 144 58q91 0 142 -58q45 -51 45 -131v-125q-1 -74 -51.5 -114t-142.5 -40h-143q-32 0 -45 -13t-13 -45v-180l-145 -77v264q0 85 50 137q43 45 112 53zM415 179v104q0 49 -42 49q-62 0 -62 -93q0 -99 61 -99q43 0 43 39z" />
    <glyph glyph-name="uni0646" unicode="&#x646;" horiz-adv-x="709" 
d="M335 428q-34 0 -54.5 20.5t-20.5 54.5t20.5 54t54.5 20q33 0 53 -20t20 -54t-20 -54.5t-53 -20.5zM619 69q0 -122 -85 -194q-75 -65 -192 -65q-138 0 -213 97q-59 75 -59 177q0 76 35 135l138 29q-37 -66 -37 -140q0 -71 37.5 -114.5t98.5 -43.5q132 0 132 119v304
l145 77v-381z" />
    <glyph glyph-name="uni0647" unicode="&#x647;" horiz-adv-x="550" 
d="M270 0q-98 0 -153 66q-47 57 -47 144q0 97 61 167q54 62 144 91q104 -34 158 -108q47 -66 47 -150q0 -101 -61 -159q-54 -51 -139 -51h-10zM270 140h11q57 0 57 69q0 81 -63 122q-61 -41 -61 -120q0 -71 56 -71z" />
    <glyph glyph-name="uni0648" unicode="&#x648;" horiz-adv-x="532" 
d="M305 30q-22 -3 -48 -3q-94 0 -150 70q-47 57 -47 138q0 111 61 176q55 57 144 57q91 0 143 -58q44 -51 44 -131v-212q0 -131 -72 -200q-56 -53 -142 -56h-8q-68 0 -131 37v127q59 -34 114 -34q9 0 16 1q66 7 76 88zM307 163v120q0 49 -42 49q-62 0 -62 -92q0 -90 63 -90
q28 0 41 13z" />
    <glyph glyph-name="uni0649" unicode="&#x649;" horiz-adv-x="769" 
d="M654 265q-75 64 -138 64q-27 0 -44.5 -14.5t-17.5 -37.5q0 -33 22 -51.5t86 -39.5q76 -26 105 -52q42 -37 42 -102q0 -109 -99 -169q-85 -53 -220 -53q-171 0 -256 97q-64 72 -64 177q0 76 35 135l138 29q-37 -66 -37 -140q0 -76 47.5 -117t136.5 -41q175 0 175 83
q0 18 -16 30t-65 29q-84 29 -117 60q-50 47 -50 126q0 91 63 142q47 39 109 39q107 0 165 -72v-122z" />
    <glyph glyph-name="uni064A" unicode="&#x64a;" horiz-adv-x="769" 
d="M654 265q-75 64 -138 64q-27 0 -44.5 -14.5t-17.5 -37.5q0 -33 22 -51.5t86 -39.5q76 -26 105 -52q42 -37 42 -102q0 -109 -99 -169q-85 -53 -220 -53q-171 0 -256 97q-64 72 -64 177q0 76 35 135l138 29q-37 -66 -37 -140q0 -76 47.5 -117t136.5 -41q175 0 175 83
q0 18 -16 30t-65 29q-84 29 -117 60q-50 47 -50 126q0 91 63 142q47 39 109 39q107 0 165 -72v-122zM308 -403q-33 0 -53.5 20.5t-20.5 54.5q0 33 20.5 53.5t53.5 20.5t53.5 -20.5t20.5 -53.5q0 -34 -20 -54.5t-54 -20.5zM475 -403q-33 0 -53.5 20.5t-20.5 54.5
q0 33 20.5 53.5t53.5 20.5t53.5 -20.5t20.5 -53.5q0 -34 -20 -54.5t-54 -20.5z" />
    <glyph glyph-name="uni064B" unicode="&#x64b;" 
d="M27 725l52 113l288 52l-52 -112zM0 565l53 113l288 52l-53 -112z" />
    <glyph glyph-name="uni064C" unicode="&#x64c;" 
d="M199 681q-13 25 -13 53q0 47 29.5 80t71.5 33q44 0 73 -33t29 -83q0 -66 -43 -106t-113 -40q-63 0 -122 36l-21 -34l-90 63l62 94h34q47 -63 103 -63zM291 711q17 12 17 31q0 25 -19 25t-19 -25q0 -20 21 -31z" />
    <glyph glyph-name="uni064D" unicode="&#x64d;" 
d="M27 -239l52 113l288 52l-52 -112zM0 -399l53 113l288 52l-53 -112z" />
    <glyph glyph-name="uni064E" unicode="&#x64e;" 
d="M0 565l53 113l288 52l-53 -112z" />
    <glyph glyph-name="uni064F" unicode="&#x64f;" 
d="M0 565l45 96l112 21q-13 25 -13 54q0 47 29.5 80t71.5 33q44 0 73 -32t29 -81q0 -48 -28.5 -84t-71.5 -42zM248 713q18 12 18 31q0 24 -19 24t-19 -24q0 -20 20 -31z" />
    <glyph glyph-name="uni0650" unicode="&#x650;" 
d="M0 -249l53 113l288 52l-53 -112z" />
    <glyph glyph-name="uni0651" unicode="&#x651;" 
d="M219 719l81 45v-115q0 -37 -27 -60.5t-68 -23.5q-33 0 -55 14q-25 -14 -57 -14q-41 0 -67 24t-26 60v49l81 45v-88q0 -12 14 -12t14 12v54l82 45v-99q0 -12 14 -12t14 12v64z" />
    <glyph glyph-name="uni0652" unicode="&#x652;" 
d="M97 774q42 -10 69 -44t27 -77q0 -40 -26 -64.5t-70 -24.5t-70.5 24t-26.5 64q0 43 27 77.5t70 44.5zM97 693q-21 -11 -21 -31q0 -24 20 -24t20 24q0 20 -19 31z" />
    <glyph glyph-name="uni0653" unicode="&#x653;" 
d="M320 733q-49 -60 -99 -60q-22 0 -63 22q-33 18 -46 18q-16 0 -49 -36l-50 44q51 60 99 60q23 0 66 -23q31 -16 43 -16q16 0 52 36z" />
    <glyph glyph-name="uni0654" unicode="&#x654;" 
d="M-4 651l35 65h31q-11 21 -11 43q0 33 24.5 57t58.5 24t61 -24v-64q-26 23 -50 23q-33 0 -33 -27q0 -15 13 -32h102l-35 -65h-196z" />
    <glyph glyph-name="uni0655" unicode="&#x655;" 
d="M-4 -271l35 65h31q-11 21 -11 43q0 33 24.5 57t58.5 24t61 -24v-64q-26 23 -50 23q-33 0 -33 -27q0 -15 13 -32h102l-35 -65h-196z" />
    <glyph glyph-name="uni0660" unicode="&#x660;" horiz-adv-x="377" 
d="M190 89l-150 151l150 147l147 -147z" />
    <glyph glyph-name="uni0661" unicode="&#x661;" horiz-adv-x="285" 
d="M70 -15v580h145v-503z" />
    <glyph glyph-name="uni0662" unicode="&#x662;" horiz-adv-x="425" 
d="M65 -15v416q0 76 46 120t126 44h163v-140h-148q-42 0 -42 -36v-326z" />
    <glyph glyph-name="uni0663" unicode="&#x663;" horiz-adv-x="633" 
d="M473 565h130v-123q0 -66 -45 -108.5t-115 -42.5q-56 0 -99 27q-40 -27 -95 -27q-17 0 -34 3v-231l-145 -78v580h145v-123q0 -27 32 -27t32 27v93h130v-93q0 -27 33 -27q31 0 31 27v123z" />
    <glyph glyph-name="uni0664" unicode="&#x664;" horiz-adv-x="460" 
d="M225 0q-93 0 -144 59q-41 47 -41 114t53 122q-43 40 -43 102q1 71 56 121q53 47 130 47h119v-131h-101q-26 0 -42 -13.5t-16 -35.5t16 -36t42 -14h76v-99h-84q-27 0 -44 -14.5t-17 -36.5v-1v-1q2 -51 61 -51h104l85 -132h-210z" />
    <glyph glyph-name="uni0665" unicode="&#x665;" horiz-adv-x="471" 
d="M237 497q103 -54 159 -152q46 -81 46 -166v-2q-2 -88 -58 -139q-54 -48 -147 -48q-107 0 -162 62q-43 49 -44 126v2q0 98 60 188q56 82 146 129zM237 364q-87 -66 -89 -159q0 -83 89 -83q88 0 88 79q0 98 -88 163z" />
    <glyph glyph-name="uni0666" unicode="&#x666;" horiz-adv-x="425" 
d="M214 -15v404q0 36 -41 36h-148v140h163q85 0 131 -50q41 -43 41 -114v-338z" />
    <glyph glyph-name="uni0667" unicode="&#x667;" horiz-adv-x="559" 
d="M188 0l-168 565h146l111 -375h2l113 375h147l-171 -565h-180z" />
    <glyph glyph-name="uni0668" unicode="&#x668;" horiz-adv-x="559" 
d="M20 0l168 565h180l171 -565h-147l-113 376h-2l-111 -376h-146z" />
    <glyph glyph-name="uni0669" unicode="&#x669;" horiz-adv-x="472" 
d="M262 -15v213q-26 -8 -53 -8q-28 0 -53 9q-121 35 -121 179q0 101 64 155q51 43 127 43q81 0 132 -52q49 -50 49 -130v-331zM262 399q0 45 -41 45q-21 0 -35 -17t-14 -43q0 -60 45 -65h7q19 0 38 12v68z" />
    <glyph glyph-name="uni066A" unicode="&#x66a;" horiz-adv-x="787" 
d="M100 464l115 112l112 -112l-112 -115zM481 565h106l-291 -565h-106zM460 130l115 112l112 -112l-112 -115z" />
    <glyph glyph-name="uni066D" unicode="&#x66d;" horiz-adv-x="371" 
d="M214 491q2 -4 5 -13q12 -31 12 -40v-2q0 -32 -40 -32q-39 0 -39 32v2q2 21 21 60q-2 -2 -5 -7q-3 -3 -4 -5q-24 -32 -32 -37q-9 -6 -18 -6q-15 0 -27.5 14t-12.5 31q0 18 15 27q14 10 65 16q-49 6 -64 13q-16 10 -16 28t12 31.5t27 13.5q9 0 17 -5q11 -6 38 -42
q-17 36 -17 52q0 34 39 34q40 0 40 -34q0 -8 -10 -32l-6 -16q21 28 36 38q7 4 15 4q22 0 33 -24q6 -11 6 -22q0 -20 -17 -27q-11 -7 -55 -11q8 -1 14 -3q36 -6 44 -11q15 -9 15 -27q0 -12 -8 -24q-11 -21 -31 -21q-9 0 -17 5q-11 7 -35 40z" />
    <glyph glyph-name="uni066E" unicode="&#x66e;" horiz-adv-x="907" 
d="M271 0q-87 0 -137 59q-44 51 -44 132v92l145 77v-161q0 -33 12.5 -46t44.5 -13h323q32 0 44.5 13t12.5 46v174l145 77v-259q0 -93 -58 -145q-51 -46 -131 -46h-357z" />
    <glyph glyph-name="uni0670" unicode="&#x670;" 
d="M0 641v187l81 44v-188z" />
    <glyph glyph-name="uni067E" unicode="&#x67e;" horiz-adv-x="907" 
d="M271 0q-87 0 -137 59q-44 51 -44 132v92l145 77v-161q0 -33 12.5 -46t44.5 -13h323q32 0 44.5 13t12.5 46v174l145 77v-259q0 -93 -58 -145q-51 -46 -131 -46h-357zM396 -234q-34 0 -54.5 20.5t-20.5 53.5q0 34 20.5 54.5t54.5 20.5q33 0 53 -20.5t20 -54.5t-20 -54
t-53 -20zM562 -234q-33 0 -53.5 20.5t-20.5 53.5q0 34 20.5 54.5t53.5 20.5q34 0 54 -20.5t20 -54.5q0 -33 -20.5 -53.5t-53.5 -20.5zM478 -381q-31 0 -49 18t-18 48q0 32 18 50.5t49 18.5t49 -18.5t18 -50.5q0 -30 -18 -48t-49 -18z" />
    <glyph glyph-name="uni06A4" unicode="&#x6a4;" horiz-adv-x="995" 
d="M730 686q-67 0 -67 68q0 67 67 67t67 -67q0 -68 -67 -68zM648 524q-34 0 -54.5 21t-20.5 55q0 33 20.5 53t54.5 20q33 0 53 -20t20 -53q0 -35 -20 -55.5t-53 -20.5zM814 524q-33 0 -53.5 21t-20.5 55q0 33 20.5 53t53.5 20t53.5 -20t20.5 -53q0 -35 -20 -55.5t-54 -20.5z
M296 0q-98 0 -156 67q-50 59 -50 149v90l145 78v-160q0 -47 16.5 -65.5t58.5 -18.5h235q-22 42 -22 94q0 112 61 176q55 58 144 58q91 0 142 -58q45 -51 45 -131v-88q0 -87 -52 -140q-50 -51 -137 -51h-430zM770 283q0 49 -42 49q-62 0 -62 -93q0 -99 61 -99q43 0 43 49v94z
" />
    <glyph glyph-name="uni2002" unicode="&#x2002;" horiz-adv-x="521" 
 />
    <glyph glyph-name="uni2003" unicode="&#x2003;" horiz-adv-x="1042" 
 />
    <glyph glyph-name="uni2004" unicode="&#x2004;" horiz-adv-x="347" 
 />
    <glyph glyph-name="uni2005" unicode="&#x2005;" horiz-adv-x="260" 
 />
    <glyph glyph-name="uni2006" unicode="&#x2006;" horiz-adv-x="69" 
 />
    <glyph glyph-name="uni2007" unicode="&#x2007;" horiz-adv-x="583" 
 />
    <glyph glyph-name="uni2008" unicode="&#x2008;" horiz-adv-x="265" 
 />
    <glyph glyph-name="uni2009" unicode="&#x2009;" horiz-adv-x="130" 
 />
    <glyph glyph-name="uni200A" unicode="&#x200a;" horiz-adv-x="35" 
 />
    <glyph glyph-name="uni2011" unicode="&#x2011;" horiz-adv-x="264" 
d="M264 321v-124h-264v124h264z" />
    <glyph glyph-name="uni2012" unicode="&#x2012;" horiz-adv-x="583" 
d="M528 321v-124h-472v124h472z" />
    <glyph glyph-name="endash" unicode="&#x2013;" horiz-adv-x="402" 
d="M411 172h-419v108h419v-108z" />
    <glyph glyph-name="emdash" unicode="&#x2014;" horiz-adv-x="587" 
d="M596 172h-604v108h604v-108z" />
    <glyph glyph-name="afii00208" unicode="&#x2015;" horiz-adv-x="771" 
d="M771 321v-124h-771v124h771z" />
    <glyph glyph-name="quoteleft" unicode="&#x2018;" horiz-adv-x="335" 
d="M186 512q39 0 64 -26t25 -67q0 -46 -29.5 -76t-74.5 -30q-46 0 -73.5 31t-27.5 82v205l78 12v-131h38z" />
    <glyph glyph-name="quoteright" unicode="&#x2019;" horiz-adv-x="335" 
d="M149 446q-39 0 -64 26t-25 67q0 46 29.5 76t74.5 30q46 0 73.5 -31t27.5 -82v-205l-78 -12v131h-38z" />
    <glyph glyph-name="quotesinglbase" unicode="&#x201a;" horiz-adv-x="340" 
d="M149 -1q-39 0 -64 25.5t-25 67.5q0 45 29.5 75.5t74.5 30.5q46 0 73.5 -31t27.5 -82v-205l-78 -12v131h-38z" />
    <glyph glyph-name="quotedblleft" unicode="&#x201c;" horiz-adv-x="568" 
d="M186 512q39 0 64 -26t25 -67q0 -46 -29.5 -76t-74.5 -30q-46 0 -73.5 31t-27.5 82v205l78 12v-131h38zM419 512q39 0 64 -26t25 -67q0 -46 -29.5 -76t-74.5 -30q-46 0 -73.5 31t-27.5 82v205l78 12v-131h38z" />
    <glyph glyph-name="quotedblright" unicode="&#x201d;" horiz-adv-x="573" 
d="M149 446q-39 0 -64 26t-25 67q0 46 29.5 76t74.5 30q46 0 73.5 -31t27.5 -82v-205l-78 -12v131h-38zM387 446q-39 0 -64 26t-25 67q0 46 29.5 76t74.5 30q46 0 73.5 -31t27.5 -82v-205l-78 -12v131h-38z" />
    <glyph glyph-name="quotedblbase" unicode="&#x201e;" horiz-adv-x="573" 
d="M149 -2q-39 0 -64 26t-25 67q0 46 29.5 76t74.5 30q46 0 73.5 -31t27.5 -82v-205l-78 -12v131h-38zM387 -2q-39 0 -64 26t-25 67q0 46 29.5 76t74.5 30q46 0 73.5 -31t27.5 -82v-205l-78 -12v131h-38z" />
    <glyph glyph-name="dagger" unicode="&#x2020;" horiz-adv-x="427" 
d="M29 454h119v179h129v-179h122v-109h-122v-388h-129v388h-119v109z" />
    <glyph glyph-name="daggerdbl" unicode="&#x2021;" horiz-adv-x="427" 
d="M148 115h-119v109h119v121h-119v109h119v177h129v-177h122v-109h-122v-121h122v-109h-122v-159h-129v159z" />
    <glyph glyph-name="bullet" unicode="&#x2022;" horiz-adv-x="393" 
d="M198 150q-128 0 -128 129q0 127 128 127q125 0 125 -127q0 -129 -125 -129z" />
    <glyph glyph-name="ellipsis" unicode="&#x2026;" horiz-adv-x="883" 
d="M262 79v-2q0 -36 -23.5 -59t-61.5 -23t-61.5 23.5t-23.5 60.5v2v2q3 35 26 56.5t59 21.5q38 0 61.5 -23t23.5 -59zM535 79v-2q0 -36 -23.5 -59t-61.5 -23t-61.5 23.5t-23.5 60.5v4q3 35 26.5 56.5t58.5 21.5q38 0 61.5 -23t23.5 -59zM809 79v-2q0 -36 -23.5 -59
t-61.5 -23t-61.5 23.5t-23.5 60.5v4q3 35 26.5 56.5t58.5 21.5q38 0 61.5 -23t23.5 -59z" />
    <glyph glyph-name="perthousand" unicode="&#x2030;" horiz-adv-x="1106" 
d="M187 645q68 0 111 -47.5t43 -123.5q0 -74 -50 -123q-43 -44 -104 -44q-71 0 -115 52q-39 46 -39 115q0 78 43 126q41 45 111 45zM224 487q0 49 -8 67t-29 18q-24 0 -32.5 -20.5t-8.5 -77.5q0 -91 35 -91q43 0 43 91v13zM563 322q69 0 111.5 -47.5t42.5 -123.5
q0 -74 -49 -123q-44 -44 -105 -44q-71 0 -115 52q-39 46 -39 115q0 78 43 126q41 45 111 45zM603 165q0 49 -8.5 67t-31.5 18t-32 -21.5t-9 -77.5q0 -89 38 -89q43 0 43 89v14zM603 633l-387 -663h-82l384 663h85zM921 322q68 0 111 -47.5t43 -123.5q0 -74 -50 -123
q-44 -44 -104 -44q-71 0 -115 52q-39 46 -39 115q0 78 43 126q41 45 111 45zM961 164q0 50 -8.5 68t-31.5 18t-32 -21.5t-9 -77.5q0 -89 38 -89q43 0 43 89v13z" />
    <glyph glyph-name="guilsinglleft" unicode="&#x2039;" horiz-adv-x="378" 
d="M338 -5h-3q-90 0 -175 78q-73 67 -110 163q42 111 130 180q76 61 153 61h5v-128q-98 -35 -138 -113q39 -76 138 -113v-128z" />
    <glyph glyph-name="guilsinglright" unicode="&#x203a;" horiz-adv-x="378" 
d="M40 -5v128q97 36 137 113q-40 78 -137 113v128h5q89 0 173 -78q73 -67 110 -163q-43 -111 -131 -180q-76 -61 -154 -61h-3z" />
    <glyph glyph-name="fraction" unicode="&#x2044;" horiz-adv-x="476" 
d="M20 0l291 565h145l-291 -565h-145z" />
    <glyph glyph-name="Euro" unicode="&#x20ac;" horiz-adv-x="612" 
d="M106 170h-77v109h58l-4 56h-54v109h73q32 90 96 145q65 56 146 56q64 0 110 -17.5t109 -66.5q-9 -16 -28 -45q-18 -28 -27 -45q-75 54 -134 54q-77 0 -126 -81h214v-109h-236l2 -56h234v-109h-214q50 -59 151 -59q33 0 56.5 9t69.5 38q9 -16 29 -45q17 -26 26 -39
q-96 -86 -199 -86q-194 0 -275 182z" />
    <glyph glyph-name="trademark" unicode="&#x2122;" horiz-adv-x="665" 
d="M12 633h230v-80h-70v-158h-86v158h-74v80zM498 395h-101l-23 102v-102h-82v238h115l43 -159l36 159h115v-238h-80v96z" />
    <glyph glyph-name="Omega" unicode="&#x2126;" horiz-adv-x="615" 
d="M290 98l1 -98h-236v112h49q-30 28 -48.5 84t-18.5 122q0 157 91 250q75 77 180 77q127 0 203 -100q68 -89 68 -227q0 -66 -18.5 -122t-48.5 -84h56v-112h-245v98l17 -1q42 0 67.5 62.5t25.5 164.5q0 101 -39 156q-33 47 -86 47q-61 0 -95.5 -53.5t-34.5 -149.5
q0 -130 36 -189q24 -37 55 -37h1h20z" />
    <glyph glyph-name="partialdiff" unicode="&#x2202;" horiz-adv-x="513" 
d="M328 371q0 67 -27.5 110.5t-69.5 43.5q-50 0 -112 -31q-6 11 -19 35q-18 36 -27 56q78 60 166 60q238 0 238 -320q0 -154 -37 -228q-53 -109 -187 -109h-2q-112 0 -172 80q-42 57 -42 127q0 102 56 155q51 49 142 49q56 0 93 -28zM335 265q-43 30 -87 30
q-30 0 -47.5 -26.5t-17.5 -69.5t20.5 -73t51.5 -30q39 0 57 37.5t23 131.5z" />
    <glyph glyph-name="Delta" unicode="&#x2206;" horiz-adv-x="703" 
d="M609 0h-615q58 156 182 473l62 160h127q163 -428 244 -633zM293 493l-120 -385h247z" />
    <glyph glyph-name="product" unicode="&#x220f;" horiz-adv-x="659" 
d="M583 633v-812h-139v706h-229v-706h-138v812h506z" />
    <glyph glyph-name="summation" unicode="&#x2211;" horiz-adv-x="533" 
d="M236 244l-214 279v110h477v-109h-344l205 -276l-196 -319h348v-108h-481v109z" />
    <glyph glyph-name="minus" unicode="&#x2212;" horiz-adv-x="514" 
d="M486 172h-457v108h457v-108z" />
    <glyph glyph-name="radical" unicode="&#x221a;" horiz-adv-x="608" 
d="M62 322l186 51l39 -257l150 584h129l-202 -700h-133l-59 227l-73 -23z" />
    <glyph glyph-name="infinity" unicode="&#x221e;" horiz-adv-x="596" 
d="M298 158q-44 -68 -109 -68q-70 0 -112 37.5t-42 100.5q0 57 42 98t101 41q76 0 112 -62q41 61 123 61q59 0 100.5 -40t41.5 -98q0 -54 -43.5 -96t-99.5 -42q-32 0 -66 20t-48 48zM238 220q-25 40 -54 40q-34 0 -34 -32t38 -32q26 0 50 24zM347 229q13 -33 49 -33
q47 0 47 31q0 34 -46 34q-35 0 -50 -32z" />
    <glyph glyph-name="integral" unicode="&#x222b;" horiz-adv-x="405" 
d="M379 588l-50 -71q-43 27 -69 27q-25 0 -25 -46v-557q0 -71 -30 -101.5t-99 -30.5q-87 0 -159 56l45 69q43 -25 79 -25h1l1 -1q24 0 24 47v558q0 69 29.5 100.5t95.5 31.5q85 0 157 -57z" />
    <glyph glyph-name="approxequal" unicode="&#x2248;" horiz-adv-x="546" 
d="M432 378l67 -50q-30 -108 -140 -108q-33 0 -114 34q-59 25 -78 25q-45 0 -70 -59l-68 50q28 106 128 106q28 0 108 -30q76 -29 102 -29q38 0 65 61zM451 205l67 -49q-30 -108 -140 -108q-33 0 -115 34q-58 24 -77 24q-45 0 -70 -58l-68 49q28 106 128 106q28 0 107 -30
q77 -28 102 -28q39 0 66 60z" />
    <glyph glyph-name="notequal" unicode="&#x2260;" horiz-adv-x="514" 
d="M251 104l-65 -104h-114l65 104h-108v109h176l18 28h-194v108h261l66 105h115l-67 -105h82v-108h-149l-18 -28h167v-109h-235z" />
    <glyph glyph-name="lessequal" unicode="&#x2264;" horiz-adv-x="514" 
d="M486 0h-457v108h457v-108zM485 108l-456 123v160l17 3l108 21q211 40 331 64v-110q-158 -25 -363 -56l363 -95v-110z" />
    <glyph glyph-name="greaterequal" unicode="&#x2265;" horiz-adv-x="514" 
d="M486 0h-457v108h457v-108zM486 231l-177 -47l-56 -15q-146 -40 -223 -61v110l361 95l-361 56v110l456 -88v-160z" />
    <glyph glyph-name="uni25CC" unicode="&#x25cc;" horiz-adv-x="428" 
d="M214 645q15 0 15 -15t-15 -15t-15 15t15 15zM152 631q15 0 15 -15q0 -14 -15 -14t-15 14q0 15 15 15zM276 631q15 0 15 -15q0 -14 -15 -14t-15 14q0 15 15 15zM103 598q15 0 15 -15t-15 -15t-15 15t15 15zM326 598q15 0 15 -15t-15 -15q-16 0 -16 15t16 15zM71 548
q14 0 14 -14q0 -15 -14 -15q-15 0 -15 15q0 14 15 14zM358 548q14 0 14 -14q0 -15 -14 -15q-15 0 -15 15q0 14 15 14zM60 491q15 0 15 -16q0 -14 -15 -14t-15 14q0 16 15 16zM369 491q15 0 15 -16q0 -14 -15 -14t-15 14q0 16 15 16zM71 432q14 0 14 -15q0 -13 -14 -13
q-15 0 -15 13q0 15 15 15zM358 432q14 0 14 -15q0 -13 -14 -13q-15 0 -15 13q0 15 15 15zM103 383q15 0 15 -15q0 -14 -15 -14t-15 14q0 15 15 15zM326 383q15 0 15 -15q0 -14 -15 -14q-16 0 -16 14q0 15 16 15zM152 349q15 0 15 -13q0 -16 -15 -16t-15 16q0 13 15 13z
M276 349q15 0 15 -13q0 -16 -15 -16t-15 16q0 13 15 13zM214 337q15 0 15 -16q0 -15 -15 -15t-15 15q0 16 15 16z" />
    <glyph glyph-name="dotcenterar" unicode="&#xe028;" 
d="M75 -49q-34 0 -54.5 20.5t-20.5 54.5t20.5 54t54.5 20q33 0 53 -20t20 -54t-20 -54.5t-53 -20.5z" />
    <glyph glyph-name="uni066E.fina" unicode="&#xe030;" horiz-adv-x="946" 
d="M875 140h98v-140h-112q-70 0 -116 34q-48 -34 -117 -34h-357q-87 0 -137 59q-44 51 -44 132v92l145 77v-161q0 -33 12.5 -46t44.5 -13h323q32 0 44.5 13t12.5 46v174l145 77v-252q0 -32 13 -45t45 -13z" />
    <glyph glyph-name="rightjoining" unicode="&#xe03d;" horiz-adv-x="147" 
d="M52 0q-93 0 -144 59q-45 52 -45 133v181l145 77v-252q0 -32 13 -45t45 -13h98v-140h-112z" />
    <glyph glyph-name="ampersandar" unicode="&#xe03e;" horiz-adv-x="822" 
d="M555 75q-3 -182 -195 -182q-89 0 -146 44q-114 86 -114 253q0 214 238 351q-58 60 -58 133q0 58 36.5 93t97.5 36h5q58 0 93 -34t35 -91q0 -78 -70 -140q245 -137 245 -360q0 -193 -162 -288v50q78 84 78 234q0 89 -61 169t-169 132q-114 -51 -171 -135q-48 -71 -48 -151
q0 -113 67 -174q42 -40 104 -40q45 0 64.5 14t23.5 49q-19 -8 -40 -8q-74 0 -115 56q-32 44 -32 105q0 72 43 119q42 45 110 45q66 0 104.5 -37.5t38.5 -101.5zM410 579q49 34 49 89q-2 50 -44 50q-45 0 -45 -52q0 -49 40 -87zM451 209q0 60 -37 60q-21 0 -34 -21.5
t-13 -55.5q0 -32 11.5 -53.5t29.5 -21.5q27 0 43 26v66z" />
    <glyph glyph-name="uniE800" unicode="&#xe800;" 
d="M373 1122l-52 -112l-288 -53l52 113zM6 797l53 113l288 52l-53 -112zM225 655v64l81 45v-115q0 -37 -27 -60.5t-68 -23.5q-33 0 -55 14q-25 -14 -57 -14q-41 0 -67 24t-26 60v49l81 45v-88q0 -12 14 -12t14 12v54l82 45v-99q0 -12 14 -12t14 12z" />
    <glyph glyph-name="uniFBB2" unicode="&#xfbb2;" 
d="M75 614q-34 0 -54.5 20.5t-20.5 54.5t20.5 54t54.5 20q33 0 53 -20t20 -54t-20 -54.5t-53 -20.5z" />
    <glyph glyph-name="uniFBB3" unicode="&#xfbb3;" 
d="M75 -258q-34 0 -54.5 20.5t-20.5 54.5q0 33 20.5 53.5t54.5 20.5q33 0 53 -20.5t20 -53.5q0 -35 -20 -55t-53 -20z" />
    <glyph glyph-name="uniFBB4" unicode="&#xfbb4;" 
d="M75 630q-34 0 -54.5 21t-20.5 55q0 33 20.5 53t54.5 20q33 0 53 -20t20 -53q0 -35 -20 -55.5t-53 -20.5zM241 630q-33 0 -53.5 21t-20.5 55q0 33 20.5 53t53.5 20t53.5 -20t20.5 -53q0 -34 -20 -55t-54 -21z" />
    <glyph glyph-name="uniFBB5" unicode="&#xfbb5;" 
d="M75 -249q-34 0 -54.5 20.5t-20.5 55.5q0 33 20.5 53t54.5 20q33 0 53 -20t20 -53q0 -35 -20 -55.5t-53 -20.5zM241 -249q-33 0 -53.5 21t-20.5 55q0 33 20.5 53t53.5 20t53.5 -20t20.5 -53q0 -35 -20 -55.5t-54 -20.5z" />
    <glyph glyph-name="uniFBB6" unicode="&#xfbb6;" 
d="M157 748q-67 0 -67 68q0 67 67 67t67 -67q0 -68 -67 -68zM75 586q-34 0 -54.5 20.5t-20.5 55.5q0 33 20.5 53t54.5 20q33 0 53 -20t20 -53q0 -35 -20 -55.5t-53 -20.5zM241 586q-33 0 -53.5 20.5t-20.5 55.5q0 32 20.5 52.5t53.5 20.5t53.5 -20.5t20.5 -52.5
q0 -35 -20 -55.5t-54 -20.5z" />
    <glyph glyph-name="uniFBB7" unicode="&#xfbb7;" 
d="M75 -233q33 0 53 -20t20 -54t-20 -54.5t-53 -20.5q-34 0 -54.5 20.5t-20.5 54.5q0 33 20.5 53.5t54.5 20.5zM241 -233q33 0 53.5 -20.5t20.5 -53.5q0 -34 -20 -54.5t-54 -20.5q-33 0 -53.5 20.5t-20.5 54.5q0 33 20.5 53.5t53.5 20.5zM157 -86q31 0 49 -18t18 -48
q0 -32 -18 -50.5t-49 -18.5t-49 18.5t-18 50.5q0 30 18 48t49 18z" />
    <glyph glyph-name="uniFD3E" unicode="&#xfd3e;" horiz-adv-x="446" 
d="M342 -118q-144 57 -220 191q-62 108 -62 237q0 150 80 268q75 111 203 161l-1 -130q-66 -42 -104 -123t-38 -179q0 -95 37.5 -172.5t104.5 -120.5v-132z" />
    <glyph glyph-name="uniFD3F" unicode="&#xfd3f;" horiz-adv-x="446" 
d="M104 -118v132q66 43 104.5 121t38.5 168q-1 102 -39 183t-105 123v130q147 -58 223 -195q60 -110 60 -242q0 -146 -81 -263q-76 -108 -201 -157z" />
    </font>
</defs>
</svg>
